<?xml version="1.0" standalone="no"?>
<!DOCTYPE svg PUBLIC "-//W3C//DTD SVG 1.1//EN" "http://www.w3.org/Graphics/SVG/1.1/DTD/svg11.dtd" >
<!--
2013-9-30: Created.
-->
<svg>
<metadata>
Created by iconfont
</metadata>
<defs>

<font id="iconfont" horiz-adv-x="1024" >
  <font-face
    font-family="iconfont"
    font-weight="500"
    font-stretch="normal"
    units-per-em="1024"
    ascent="896"
    descent="-128"
  />
    <missing-glyph />
    
    <glyph glyph-name="x" unicode="x" horiz-adv-x="1001"
d="M281 543q-27 -1 -53 -1h-83q-18 0 -36.5 -6t-32.5 -18.5t-23 -32t-9 -45.5v-76h912v41q0 16 -0.5 30t-0.5 18q0 13 -5 29t-17 29.5t-31.5 22.5t-49.5 9h-133v-97h-438v97zM955 310v-52q0 -23 0.5 -52t0.5 -58t-10.5 -47.5t-26 -30t-33 -16t-31.5 -4.5q-14 -1 -29.5 -0.5
t-29.5 0.5h-32l-45 128h-439l-44 -128h-29h-34q-20 0 -45 1q-25 0 -41 9.5t-25.5 23t-13.5 29.5t-4 30v167h911zM163 247q-12 0 -21 -8.5t-9 -21.5t9 -21.5t21 -8.5q13 0 22 8.5t9 21.5t-9 21.5t-22 8.5zM316 123q-8 -26 -14 -48q-5 -19 -10.5 -37t-7.5 -25t-3 -15t1 -14.5
t9.5 -10.5t21.5 -4h37h67h81h80h64h36q23 0 34 12t2 38q-5 13 -9.5 30.5t-9.5 34.5q-5 19 -11 39h-368zM336 498v228q0 11 2.5 23t10 21.5t20.5 15.5t34 6h188q31 0 51.5 -14.5t20.5 -52.5v-227h-327z" />
    

    
    <glyph glyph-name="mobile" unicode="&#58882;" d="M736 896l-448 0c-52.8 0-96-43.2-96-96l0-832c0-52.8 43.2-96 96-96l448 0c52.8 0 96 43.2 96 96l0 832c0 52.8-43.2 96-96 96zM384 848l256 0 0-32-256 0 0 32zM512-64c-35.36 0-64 28.64-64 64s28.64 64 64 64 64-28.64 64-64-28.64-64-64-64zM768 128l-512 0 0 640 512 0 0-640z"  horiz-adv-x="1024" />

    
    <glyph glyph-name="minus" unicode="&#58982;" d="M217.512832 426.069256l588.974335 0c23.234698 0 42.070048-18.83535 42.070048-42.070048s-18.83535-42.070048-42.070048-42.070048L217.512832 341.929161c-23.234698 0-42.070048 18.83535-42.070048 42.070048S194.276552 426.069256 217.512832 426.069256z"  horiz-adv-x="1024" />

    
    <glyph glyph-name="list" unicode="&#58897;" d="M85.611332 463.278601c-44.862767 0-81.239256-35.501562-81.239256-79.253018 0-43.75248 36.375465-79.222319 81.239256-79.222319 44.86379 0 81.173764 35.469839 81.173764 79.222319C166.785096 427.777039 130.474099 463.278601 85.611332 463.278601L85.611332 463.278601zM329.258491 714.770426l649.777947 0c22.431895 0 40.584324 17.752316 40.584324 39.642882 0 21.86089-18.152429 39.61116-40.584324 39.61116L329.258491 794.024467c-22.366404 0-40.584324-17.750269-40.584324-39.61116C288.674167 732.521718 306.891064 714.770426 329.258491 714.770426L329.258491 714.770426zM85.611332 92.85812999999996c-44.862767 0-81.239256-35.499515-81.239256-79.222319s36.375465-79.220273 81.239256-79.220273c44.86379 0 81.173764 35.497469 81.173764 79.220273S130.474099 92.85812999999996 85.611332 92.85812999999996L85.611332 92.85812999999996zM979.035414 423.636742L329.258491 423.636742c-22.366404 0-40.584324-17.717524-40.584324-39.61116 0-21.89159 18.21792-39.610136 40.584324-39.610136l649.777947 0c22.431895 0 40.584324 17.717524 40.584324 39.610136C1019.619738 405.918195 1001.467309 423.636742 979.035414 423.636742L979.035414 423.636742zM85.611332 833.634604c-44.862767 0-81.239256-35.468816-81.239256-79.221296s36.375465-79.254042 81.239256-79.254042c44.86379 0 81.173764 35.501562 81.173764 79.254042S130.474099 833.634604 85.611332 833.634604L85.611332 833.634604zM979.035414 53.18557199999998L329.258491 53.18557199999998c-22.366404 0-40.584324-17.687848-40.584324-39.548738 0-21.923312 18.21792-39.671535 40.584324-39.671535l649.777947 0c22.431895 0 40.584324 17.748223 40.584324 39.671535C1019.619738 35.49670100000003 1001.467309 53.18557199999998 979.035414 53.18557199999998L979.035414 53.18557199999998zM979.035414 53.18557199999998"  horiz-adv-x="1024" />

    
    <glyph glyph-name="star" unicode="&#59046;" d="M503.12197677 803.98021313l148.17249937-263.81249532 301.50533907-56.86160812L742.96800083 263.42127281l38.06507156-298.92468937L503.12197677 92.44119655999998 225.18018083-35.50245749999999l38.0641125 298.92468938L53.3530002 483.30706969l301.50533907 56.86160812L503.12197677 803.98021313"  horiz-adv-x="1024" />

    
    <glyph glyph-name="error" unicode="&#58968;" d="M874.038722 746.03836c-199.948854 199.948854-524.128616 199.948854-724.07647 0s-199.948854-524.128616 0-724.07647 524.128616-199.948854 724.07647 0S1073.986576 546.089506 874.038722 746.03836zM715.646838 135.097807L516.947984 333.79666199999997 313.302133 130.149811l-45.254967 45.254967 203.646851 203.646851L263.09817 587.646476l45.254967 45.254967 208.594847-208.594847 203.646851 203.646851 45.254967-45.254967L562.202951 379.05162900000005l198.697854-198.697854L715.646838 135.097807z"  horiz-adv-x="1024" />

    
    <glyph glyph-name="yes" unicode="&#58885;" d="M512 896C229.248 896 0 666.784 0 384c0-282.752 229.248-512 512-512s512 229.248 512 512C1024 666.784 794.752 896 512 896zM439.936 159.84000000000003l-216.096 208.096 53.952 52.064 162.144-155.936L746.208 576l53.984-52.064L439.936 159.84000000000003z"  horiz-adv-x="1024" />

    
    <glyph glyph-name="search" unicode="&#58902;" d="M1011.975-64.66399999999999L785.583 136.17700000000002c28.026 35.029 50.8 73.962 67.876 116.211 22.961 56.813 34.604 117.132 34.604 179.274 0 62.144-11.644 122.459-34.604 179.273-22.211 54.957-54.027 104.332-94.561 146.751-40.643 42.532-88.014 75.944-140.797 99.307C563.323 881.241 505.137 893.536 445.16 893.536c-59.979 0-118.166-12.294-172.944-36.542-52.783-23.363-100.154-56.775-140.797-99.307-40.536-42.421-72.35-91.794-94.563-146.751C13.894 554.123 2.251 493.806 2.251 431.662c0-62.143 11.643-122.461 34.605-179.274 22.211-54.954 54.027-104.329 94.563-146.749 40.643-42.532 88.014-75.944 140.797-99.307 54.779-24.246 112.965-36.541 172.944-36.541 59.977 0 118.164 12.295 172.941 36.541 43.84 19.405 83.932 45.765 119.552 78.504l227.722-202.025c6.686-5.929 15.002-8.846 23.287-8.846 9.691 0 19.336 3.991 26.275 11.811C1027.809-99.72000000000003 1026.48-77.53200000000004 1011.975-64.66399999999999zM445.161 40.00800000000004c-205.503 0-372.693 175.696-372.693 391.654 0 215.961 167.189 391.658 372.693 391.658 205.501 0 372.688-175.697 372.688-391.658C817.849 215.702 650.661 40.00800000000004 445.161 40.00800000000004z"  horiz-adv-x="1024" />

    
    <glyph glyph-name="error2" unicode="&#58929;" d="M512-113.10269630000005c-67.09958475 0-132.20280508 13.1460465-193.50153277 39.07359754-59.19764029 25.03806861-112.35713983 60.87851021-158.0044234 106.52446819s-81.48639959 98.80678313-106.5244682 158.0030978C28.04335021 251.79852053000002 14.8973037 316.90041525000004 14.8973037 384s13.1460465 132.20280508 39.07359754 193.50153277c25.03806861 59.19631468 60.87851021 112.35713983 106.52446819 158.0030978s98.80678313 81.48639959 158.00442342 106.52446819C379.79719492 867.95664979 444.90041525 881.1026963 512 881.1026963s132.20147947-13.1460465 193.50153277-39.07359754c59.19631468-25.03806861 112.35713983-60.87851021 158.0030978-106.52446819s81.48772519-98.80678313 106.52446819-158.0030978C995.95664979 516.20280508 1009.1026963 451.09958475 1009.1026963 384s-13.1460465-132.20147947-39.07359754-193.50153277c-25.03806861-59.19631468-60.87851021-112.35713983-106.52446819-158.0030978s-98.80678313-81.48772519-158.0030978-106.52446819C644.20280508-99.95664979000003 579.09958475-113.10269630000005 512-113.10269630000005zM512 841.33448059c-252.17555821 0-457.33448059-205.16024799-457.33448059-457.33448059s205.16024799-457.33448059 457.33448059-457.33448059c252.1742326 0 457.33448059 205.16024799 457.33448059 457.33448059S764.17555821 841.33448059 512 841.33448059zM675.25382789 575.37525882L512.15642165 412.27652698 351.24494166 573.18800695 323.12483634 545.0665760300001 484.03631633 384.15642165 320.62474118 220.74617210999997 348.74617211 192.62474118 512.15642165 356.03631633 673.06790163 195.12483634 701.18800695 223.24494166 540.27652698 384.15642165 703.37525882 547.25382789Z"  horiz-adv-x="1024" />

    
    <glyph glyph-name="star-empty" unicode="&#59259;" d="M760.27762-41.936878999999976c-10.488889 0-21.190625 3.048429-31.822776 9.052167L511.575328 81.127971 294.497291-32.98704299999997c-10.93505-5.937223-21.574365-8.949836-31.616068-8.949836-14.784728 0-27.366278 6.130627-35.429931 17.266245-6.566556 9.04091-9.900487 19.844977-9.900487 32.095999 0 3.321652 0.400113 7.531534 1.298576 13.639648 0.027629 0.194428 0.057305 0.388856 0.091074 0.577145l41.60763 241.85535L84.446297 434.771337c-0.302899 0.298805-0.605797 0.601704-0.8913 0.914836-12.828167 13.881149-19.063171 27.190269-19.063171 40.686654 0 11.80486 4.747117 40.013319 48.705282 47.040363 0.10847 0.017396 0.223081 0.034792 0.330528 0.053212l242.884796 35.298947L465.158159 778.668735c6.080485 13.006222 20.11513 34.4363 46.549176 34.4363 26.441209 0 40.475853-21.430078 46.549176-34.4363l108.74675-219.904409 242.877633-35.298947c0.11461-0.017396 0.230244-0.034792 0.338714-0.053212 43.963281-7.028067 48.710398-35.241642 48.710398-47.040363 0-1.818415-0.204661-3.585665-0.582261-5.284353-1.499144-12.222369-8.178263-24.335245-19.914562-36.081777-0.073678-0.068562-0.14224-0.143263-0.216941-0.211824L762.599502 263.52104499999996l41.611723-241.878886c0.034792-0.193405 0.068562-0.393973 0.098237-0.594541 0.525979-3.615341 0.771573-7.943926 0.771573-13.622252 0-12.252045-3.333932-23.060205-9.91686-32.119535C787.105638-35.807275000000004 774.706237-41.936878999999976 760.27762-41.936878999999976L760.27762-41.936878999999976zM266.243807 13.813865999999962c-0.704035-4.826935-0.750083-6.399757-0.750083-6.468318 0-0.234337 0.00614-0.527003 0.023536-0.846274 1.446955 0.423649 3.483334 1.217734 6.186909 2.694365 0.109494 0.063445 0.224104 0.119727 0.332575 0.177032L500.423337 129.42802400000005c6.984065 3.670599 4.598738 9.744945 11.576663 6.079462l239.114936-126.137839c0.257873-0.132006 0.508583-0.275269 0.760317-0.418532 1.893116-1.080611 3.671623-1.886977 5.244444-2.379187 0.011256 0.315178 0.017396 0.607844 0.017396 0.853437 0 4.02057-0.170892 5.884011-0.240477 6.495948l-43.683918 253.893524c-1.338485 7.779174 1.236154 15.71696 6.885827 21.224394l184.520527 179.961698c2.338255 2.351558 3.807722 4.198625 4.728698 5.53097-1.515516 0.497327-3.63683 1.040702-6.54302 1.515516l-255.157307 37.083593c-7.800663 1.131777-14.550391 6.027274-18.043958 13.096273L515.15076 757.6735610000001c-0.092098 0.189312-0.177032 0.3776-0.26913 0.566912-1.251503 2.711761-2.349511 4.479011-3.174296 5.598508-0.822738-1.12052-1.920746-2.892887-3.180436-5.604648-0.084934-0.189312-0.170892-0.37146-0.268106-0.560772L393.806087 526.2272820000001c-3.494591-7.068999-10.237155-11.964496-18.037818-13.096273l-255.16447-37.083593c-3.069919-0.503467-5.266957-1.086751-6.79373-1.601474 0.8913-1.394766 2.315742-3.317559 4.551666-5.78168l184.668906-179.601494c5.661953-5.508457 8.247848-13.458523 6.909363-21.246907L266.243807 13.813865999999962 266.243807 13.813865999999962zM266.243807 13.813865999999962"  horiz-adv-x="1024" />

    
    <glyph glyph-name="slidebutton-no" unicode="&#58926;" d="M581.856509 360.812905c0 30.280654-5.884011 59.165518-17.655102 86.653569-11.770068 27.488051-27.693736 51.271734-47.768957 71.345931-20.076244 20.076244-43.85788 35.998889-71.346955 47.768957-27.487028 11.770068-56.371892 17.655102-86.654592 17.655102-30.281677 0-59.164494-5.885034-86.653569-17.655102-27.487028-11.769045-51.27071-27.692712-71.345931-47.768957-20.077268-20.075221-35.999912-43.85788-47.768957-71.345931-11.770068-27.487028-17.655102-56.371892-17.655102-86.653569 0-30.2827 5.885034-59.165518 17.655102-86.654592 11.769045-27.488051 27.691689-51.271734 47.768957-71.344908 20.075221-20.076244 43.856857-36.001959 71.345931-47.76998 27.487028-11.771091 56.371892-17.656125 86.653569-17.656125 30.2827 0 59.166541 5.885034 86.654592 17.656125 27.487028 11.768021 51.27071 27.693736 71.346955 47.76998 20.075221 20.073174 35.998889 43.85481 47.768957 71.344908C575.971475 301.647387 581.856509 330.530205 581.856509 360.812905zM917.075247 360.812905c0 30.280654-5.886057 59.165518-17.656125 86.653569-11.768021 27.488051-27.693736 51.271734-47.76998 71.345931-20.075221 20.076244-43.85481 35.998889-71.344908 47.768957-27.488051 11.770068-56.371892 17.655102-86.656639 17.655102L525.148973 584.2364640000001c34.639938-26.184359 62.069661-58.775638 82.295308-97.771791 20.225647-38.997176 30.336936-80.899518 30.336936-125.707027 0-44.806485-10.113335-86.708827-30.336936-125.70805-20.225647-38.995129-47.65537-71.587432-82.295308-97.771791l168.501692 0c30.283724 0 59.165518 5.885034 86.655615 17.656125 27.489074 11.770068 51.269687 27.692712 71.344908 47.768957 20.076244 20.075221 36.000935 43.856857 47.771003 71.345931 11.768021 27.488051 17.655102 56.371892 17.655102 86.654592L917.075247 360.812905 917.075247 360.812905zM972.945719 360.812905c0-37.841863-7.411807-73.991178-22.23542-108.443851C935.887708 217.916381 916.033521 188.23026800000002 891.153878 163.31276200000002c-24.88169-24.918529-54.568826-44.769646-89.057315-59.556421-34.489512-14.786775-70.63678-22.197558-108.443851-22.23542L358.433974 81.52092100000004c-37.841863 0-73.991178 7.411807-108.443851 22.23542-34.453696 14.82259-64.138786 34.6778-89.055269 59.556421-24.918529 24.880667-44.770669 54.56678-59.557444 89.056292-14.786775 34.490535-22.199605 70.63678-22.23542 108.443851-0.036839 37.804001 7.374968 73.952292 22.23542 108.442828 14.859429 34.491559 34.713616 64.175625 59.557444 89.056292 24.841781 24.880667 54.527894 44.732807 89.055269 59.556421 34.527374 14.824637 70.674643 22.236444 108.443851 22.236444l335.218738 0c37.841863 0 73.991178-7.411807 108.442828-22.236444 34.45165-14.823614 64.138786-34.675754 89.057315-59.556421 24.917506-24.880667 44.768623-54.565756 59.555397-89.056292C965.497073 434.764174 972.907856 398.616906 972.945719 360.812905z"  horiz-adv-x="1024" />

    
    <glyph glyph-name="slidebutton-yes" unicode="&#58900;" d="M65.007061 344.91789000000006c0 37.790698 7.401574 73.888847 22.205745 108.295472 14.803147 34.406624 34.628682 64.050782 59.476603 88.934518 24.846898 24.883737 54.491055 44.709271 88.934518 59.47558 34.443463 14.767332 70.541613 22.168905 108.295472 22.205745l334.760297 0c37.790698 0 73.889871-7.401574 108.293425-22.205745 34.406624-14.803147 64.052828-34.628682 88.934518-59.47558 24.885783-24.845874 44.710294-54.491055 59.476603-88.934518 14.768355-34.443463 22.168905-70.541613 22.205745-108.295472 0.036839-37.752836-7.363711-73.852008-22.205745-108.296495-14.84101-34.440393-34.665521-64.086597-59.476603-88.931448-24.809035-24.846898-54.453193-44.673455-88.934518-59.47558-34.478256-14.806217-70.578452-22.206768-108.293425-22.206768L343.917352 66.00759900000003c-37.790698 0-73.888847 7.40055-108.295472 22.206768-34.406624 14.802124-64.050782 34.628682-88.934518 59.47558-24.88476 24.844851-44.709271 54.491055-59.476603 88.931448C72.445474 271.065881 65.0439 307.16505400000005 65.007061 344.91789000000006L65.007061 344.91789000000006zM678.732907 121.74504100000001c30.241768 0 59.0857 5.875824 86.536912 17.630542 27.449165 11.753695 51.199079 27.65485 71.246671 47.703465 20.048615 20.046568 35.950793 43.796482 47.702442 71.247694 11.755742 27.450189 17.631566 56.296167 17.631566 86.534865 0 30.240745-5.875824 59.0857-17.631566 86.535889-11.751648 27.451212-27.653827 51.200102-47.702442 71.247694-20.047592 20.048615-43.797505 35.94977-71.246671 47.703465-27.451212 11.753695-56.297191 17.630542-86.536912 17.630542-30.239721 0-59.084677-5.877871-86.535889-17.630542-27.449165-11.753695-51.198056-27.65485-71.245647-47.703465-20.049638-20.048615-35.950793-43.797505-47.704488-71.247694-11.754718-27.450189-17.630542-56.295144-17.630542-86.535889 0-30.239721 5.877871-59.084677 17.630542-86.534865 11.752672-27.451212 27.65485-51.201126 47.704488-71.247694 20.047592-20.048615 43.796482-35.94977 71.245647-47.703465C619.64823 127.62086499999998 648.494209 121.74504100000001 678.732907 121.74504100000001L678.732907 121.74504100000001z"  horiz-adv-x="1024" />

    
    <glyph glyph-name="weixin" unicode="&#58986;" d="M584.89363 384.056889c-12.591407 0-25.353481-12.724148-25.353481-25.353481 0-12.8 12.781037-25.353481 25.353481-25.353481 19.26637 0 31.762963 12.553481 31.762963 25.353481C616.656593 371.35170400000004 604.141037 384.056889 584.89363 384.056889zM502.423704 504.718222c19.171556 0 31.762963 12.724148 31.762963 31.706074 0 19.095704-12.591407 31.668148-31.762963 31.668148-19.000889 0-38.039704-12.534519-38.039704-31.668148C464.384 517.44237 483.460741 504.718222 502.423704 504.718222zM870.4 896L153.6 896C69.12 896 0 826.88 0 742.4l0-716.8C0-58.879999999999995 69.12-128 153.6-128l716.8 0c84.48 0 153.6 69.12 153.6 153.6L1024 742.4C1024 826.88 954.88 896 870.4 896zM407.305481 244.37570400000004c-31.668148 0-57.116444 6.447407-88.841481 12.667259l-88.708741-44.449185 25.353481 76.306963c-63.525926 44.430222-101.527704 101.641481-101.527704 171.311407 0 120.737185 114.232889 215.74163 253.705481 215.74163 124.776296 0 234.040889-75.927704 256-178.176-8.154074 0.891259-16.270222 1.517037-24.500148 1.517037-120.471704 0-215.627852-89.960296-215.665778-200.779852 0-18.507852 2.901333-36.257185 7.831704-53.229037C423.158519 244.736 415.269926 244.37570400000004 407.305481 244.37570400000004zM781.463704 155.45836999999995l19.076741-63.431111-69.575111 38.172444c-25.353481-6.352593-50.839704-12.667259-76.117333-12.667259-120.680296 0-215.74163 82.375111-215.74163 184.092444 0 101.376 95.023407 184.092444 215.74163 184.092444 114.024296 0 215.533037-82.659556 215.533037-184.092444C870.4 244.37570400000004 832.398222 193.70666700000004 781.463704 155.45836999999995zM724.442074 384.056889c-12.553481 0-25.220741-12.724148-25.220741-25.353481 0-12.8 12.724148-25.353481 25.220741-25.353481 19.076741 0 31.762963 12.553481 31.762963 25.353481C756.205037 371.35170400000004 743.518815 384.056889 724.442074 384.056889zM324.873481 568.092444c-19.038815 0-38.21037-12.591407-38.21037-31.668148 0-18.981926 19.171556-31.706074 38.21037-31.706074 19.038815 0 31.668148 12.724148 31.668148 31.706074C356.54163 555.557926 343.912296 568.092444 324.873481 568.092444z"  horiz-adv-x="1024" />

    
    <glyph glyph-name="lock" unicode="&#58919;" d="M137.89285678-90.61935884000002c0 183.31068022 0 366.25746834 0 549.99702263 37.59785886 0 75.05276057 0 113.10548392 0 0 2.82016458 0 4.84756297 0 6.87496264 0.03898891 38.98844669-1.41658087 78.04187404 0.48085753 116.93934833 3.11907604 63.9670455 20.62488796 123.77532209 59.1844619 176.04583372 31.97052688 43.32916038 74.71486018 70.89399293 126.76443684 84.1240718 39.24836927 9.96804566 79.02958213 11.46260305 119.10970517 6.7320055 36.55816727-4.31472195 70.95897358-15.06253663 102.37066512-34.66072887 35.58345633-22.19742186 62.18657251-52.64739962 81.74577716-89.43949644 21.83352973-41.0938229 33.34811755-85.20275229 37.50688519-131.35207723 0.74078011-8.26555049 0.98770682-16.59608162 1.01369984-24.900621 0.10396956-34.47878282 0.05198477-68.95756562 0.05198478-103.43634974 0-2.02739969 0-4.06779525 0-6.70601247 37.9097662 0 75.23470662 0 112.91054199 0 0-183.67457234 0-366.72532999 0-550.19196453C640.96078543-90.61935884000002 389.68024639-90.61935884000002 137.89285678-90.61935884000002zM704.12206889 459.88451306c0 2.35230291 0 4.37970259 0 6.42009814 0 34.81668319 0.09097367 69.63336639-0.02599174 104.45004829-0.12996129 40.41802343-8.07060855 79.10755863-27.07097785 115.04190993-18.12962789 34.30983263-44.83671363 59.6783153-81.12196117 73.96108291-44.25188655 17.41483953-89.81638571 18.61048544-135.7447757 8.22656288-42.02954622-9.51318116-75.48163332-32.21745358-98.91368998-68.61966655-24.51073714-38.07871639-34.41380217-80.53713539-35.05061403-125.28287533-0.51984644-36.19427516-0.10396956-72.40154619-0.09097367-108.60881591 0-1.83245647 0.1689502-3.66491423 0.25992257-5.58834436C452.45164599 459.88451306 577.95545629 459.88451306 704.12206889 459.88451306zM552.9248727 26.96979723000004c0 2.31331399 0 4.34071369 0 6.36811337 0 39.13140384 0.03898891 78.27580485-0.07797652 117.40721001-0.01299587 3.48296817 1.01369985 5.64032914 3.89884508 7.69372056 30.63192253 21.70356844 41.93857255 60.30213127 28.12366659 95.43072183-13.76292117 34.98563339-51.50373849 55.59752547-86.35940929 46.43524055-32.34741487-8.49948131-51.8286417-30.13806912-57.55994323-62.66743006-5.64032914-32.02251037 5.2894329-58.62562784 31.42468871-78.3797744 3.58693771-2.71619502 5.00351728-5.30242877 4.97752555-9.77310373-0.18194606-38.79350476-0.10396956-77.57401236-0.09097368-116.36751713 0-1.98841078 0.19494193-3.98981745 0.29891147-6.14717841C502.85071094 26.96979723000004 527.54339415 26.96979723000004 552.9248727 26.96979723000004z"  horiz-adv-x="1024" />

    
    <glyph glyph-name="person" unicode="&#58927;" d="M511.193635 896c-281.853319 0-511.172145-229.318826-511.172145-511.172145 0-122.9441 44.262086-241.750973 124.655068-334.530053 97.223299-112.271016 238.114143-176.642093 386.517077-176.642093 281.853319 0 511.172145 229.318826 511.172145 511.172145S793.046954 896 511.193635 896zM511.193635-77.661521c-109.490693 0-214.055191 39.274492-296.768007 108.639303 21.999037 146.970306 147.913794 256.483512 297.956066 256.483512 148.259672 0 273.390577-105.971543 297.566186-251.972778 0.13917-0.844228 0.651846-1.497097 0.871857-2.307555C730.023572-35.76838899999996 625.484657-77.661521 511.193635-77.661521zM511.193635 336.145086c-89.593528 0-162.475442 72.881914-162.475442 162.450882 0 89.593528 72.881914 162.475442 162.475442 162.475442 89.568968 0 162.450882-72.881914 162.450882-162.475442C673.644517 409.027 600.762603 336.145086 511.193635 336.145086zM851.710029 72.95891800000004C821.72511 191.01775399999997 733.565235 282.304853 621.191888 318.719204c60.540841 37.158295 101.135398 103.775528 101.135398 179.876764 0 116.430756-94.703919 211.158211-211.134675 211.158211s-211.158211-94.727455-211.158211-211.158211c0-76.508511 41.041742-143.431713 102.128005-180.469258C289.565978 280.910087 201.836915 188.32952899999998 172.708504 70.53470500000003c-3.678786 3.959172-7.682983 7.538697-11.234879 11.640108-72.715115 83.935668-112.769366 191.404308-112.769366 302.653041 0 255.016091 207.473285 462.489376 462.489376 462.489376S973.683011 639.842922 973.683011 384.827855C973.683011 264.59858599999995 927.181931 155.29311099999995 851.710029 72.95891800000004z"  horiz-adv-x="1024" />

    
    <glyph glyph-name="pinglun" unicode="&#58946;" d="M512 55.782396999999946c-27.974819 0-55.21986 2.554223-81.735123 6.93289L238.819812-53.441025999999965l0 193.391139C138.961872 210.00878999999998 74.863048 317.529398 74.863048 438.307637 74.863048 649.456705 270.56515 820.711248 512 820.711248c241.43485 0 437.136952-171.254543 437.136952-382.403611C949.136952 227.03693999999996 753.31322 55.782396999999946 512 55.782396999999946L512 55.782396999999946zM512 766.099537c-211.270697 0-382.525241-146.806984-382.525241-327.791899 0-111.047868 64.585343-209.081364 163.226987-268.436631l-1.702815-126.738092 128.562537 77.356456c29.677634-6.324742 60.449935-9.973631 92.316902-9.973631 211.270697 0 382.525241 146.806984 382.525241 327.791899C894.403611 619.292553 723.270697 766.099537 512 766.099537L512 766.099537zM730.568476 383.574296c-30.164153 0-54.611712 24.447559-54.611712 54.611712 0 30.164153 24.447559 54.611712 54.611712 54.611712 30.164153 0 54.611712-24.447559 54.611712-54.611712C785.180188 408.021855 760.732629 383.574296 730.568476 383.574296L730.568476 383.574296zM512 383.574296c-30.164153 0-54.611712 24.447559-54.611712 54.611712 0 30.164153 24.447559 54.611712 54.611712 54.611712 30.164153 0 54.611712-24.447559 54.611712-54.611712C566.611712 408.021855 542.164153 383.574296 512 383.574296L512 383.574296zM293.431524 383.574296c-30.164153 0-54.611712 24.447559-54.611712 54.611712 0 30.164153 24.447559 54.611712 54.611712 54.611712 30.164153 0 54.611712-24.447559 54.611712-54.611712C348.043236 408.021855 323.595676 383.574296 293.431524 383.574296L293.431524 383.574296zM293.431524 383.574296"  horiz-adv-x="1024" />

    
    <glyph glyph-name="star-half" unicode="&#58928;" d="M957.5511 481.890494c0-7.842619-4.710278-16.461927-14.106276-25.833365L748.480434 266.255319l46.028313-268.731464c0.626263-2.505054 0.952698-6.087649 0.952698-10.799974 0-17.84032-7.366781-26.78504-22.073738-26.78504-6.916527 0-14.107299 2.205225-21.624507 6.564509l-241.019309 126.861316L269.750165-33.495626000000016c-7.842619-4.359284-15.058974-6.564509-21.623483-6.564509-7.516184 0-13.153578 2.606361-16.913205 7.742335-3.75758 5.186116-5.637394 11.526521-5.637394 19.041682 0 2.205225 0.299829 5.788843 0.951675 10.799974l46.505173 268.731464L77.592704 456.057129c-9.096169 9.69685-13.630439 18.316158-13.630439 25.833365 0 13.154601 10.022261 21.448498 30.067806 24.90625l269.683139 38.987966L484.434689 790.085762c6.889921 14.709003 15.659655 22.074761 26.308179 22.074761s19.419282-7.365758 26.310226-22.074761l120.746038-244.300029 269.684162-38.987966C947.528839 503.338992 957.5511 495.045095 957.5511 481.890494zM674.237523 290.20989399999996L838.683852 449.467037l-226.461755 33.376155-101.479229 205.287503 0-517.240351 202.50718-106.665345L674.237523 290.20989399999996z"  horiz-adv-x="1024" />

    
    <glyph glyph-name="error1" unicode="&#58941;" d="M511.998112-128C229.672768-128 0 101.667776 0 384.001888 0 666.327232 229.672768 896 511.998112 896 794.332224 896 1024 666.327232 1024 384.001888 1024 101.667776 794.332224-128 511.998112-128ZM511.998112 822.528672C270.190336 822.528672 73.471328 625.809664 73.471328 384.001888 73.471328 142.22908800000005 270.190336-54.52867200000003 511.998112-54.52867200000003 753.770912-54.52867200000003 950.528672 142.22908800000005 950.528672 384.001888 950.533664 625.809664 753.775936 822.528672 511.998112 822.528672ZM563.266944 384.001888L725.90464 546.63456C739.029664 559.759584 739.029664 581.238368 725.90464 594.363392L722.369632 597.8996480000001C709.244608 611.02464 687.764576 611.02464 674.63456 597.8996480000001L512.003136 435.266944 349.36544 597.8996480000001C336.240416 611.02464 314.761632 611.02464 301.636608 597.8996480000001L298.100352 594.363392C284.97536 581.238368 284.97536 559.759584 298.100352 546.63456L460.738048 384.001888 298.100352 221.36544000000004C284.97536 208.24041599999998 284.97536 186.76038400000004 298.100352 173.63536L301.636608 170.10035200000004C314.761632 156.97536000000002 336.240416 156.97536000000002 349.36544 170.10035200000004L512.003136 332.73305600000003 674.63456 170.10035200000004C687.764576 156.97536000000002 709.239616 156.97536000000002 722.369632 170.10035200000004L725.90464 173.63536C739.029664 186.76038400000004 739.029664 208.24041599999998 725.90464 221.36544000000004L563.266944 384.001888Z"  horiz-adv-x="1024" />

    
    <glyph glyph-name="share" unicode="&#58907;" d="M720.98992352 646.92280685m-107.86576737 0a2.31742859 2.31742859 0 1 1 215.73153402 0 2.31742859 2.31742859 0 1 1-215.73153402 0ZM343.45973878 390.74161051L663.68623458 603.1023396400001 680.54026122 613.21475504 660.31542969 640.1811970599999 646.83220867 633.4395865500001 323.234908 421.07885742 309.751687 410.96644203 326.60571289 384ZM282.78524496 404.22483153m-107.86576738 0a2.31742859 2.31742859 0 1 1 215.73153404 0 2.31742859 2.31742859 0 1 1-215.73153404 0ZM720.98992352 127.81880293999996m-107.86576737 0a2.31742859 2.31742859 0 1 1 215.73153402 0 2.31742859 2.31742859 0 1 1-215.73153402 0ZM353.57215492 343.55033768L680.54026122 134.56041345000006 694.02348222 124.44799805000002 710.87750812 154.78524496 697.39428711 161.52685547 370.42618082 370.51677898 356.9429598 380.62919510999996 340.0889339 350.29194746999997Z"  horiz-adv-x="1024" />

    
    <glyph glyph-name="mobile-binded" unicode="&#58910;" d="M328.5728 134.94506666999996h380.9824v481.01973333h-380.9824v-481.01973333zM423.23626667 414.48746667c9.232 7.24586667 22.55573333 5.6096 29.80053333-3.62346667l47.79946667-61.2384 113.94346666 120.95573333c8.06293333 8.5312 21.3856 8.88106667 29.91786667 0.9344 8.5312-8.06293333 8.88106667-21.3856 0.9344-29.91786666l-130.8896-138.9536c-3.97333333-4.208-9.584-6.66133333-15.42506667-6.66133334-0.35093333 0-0.70186667 0-0.9344 0-6.19413333 0.23466667-11.92 3.2736-15.776 8.1792l-62.99093333 80.7552c-7.36106667 8.99733333-5.6096 22.32213333 3.62346667 29.56693334zM328.5728 93.57653332999996c0-59.36746667 26.528-59.36746667 39.2672-59.36746666h302.44906667c12.73813333 0 39.2672 0 39.2672 59.36746666v20.10026667h-380.9824v-20.10026667zM650.07146667 696.4864h-282.22933334c-12.73813333 0-39.2672 0-39.2672-59.36746667h380.9824c0 16.71146667-6.0768 31.78773333-17.0624 42.656s-26.06186667 16.71146667-42.4224 16.71146667zM508.43093333 884.17173333c-280.94506667 0-508.7168-227.77173333-508.7168-508.7168s227.77173333-508.7168 508.7168-508.7168 508.7168 227.77173333 508.7168 508.7168-227.77173333 508.7168-508.7168 508.7168zM730.7104 615.96586667v-522.38933334c0-46.7456-15.54346667-80.52053333-60.53653333-80.52053333h-302.3328c-44.99306667 0-60.53653333 33.77386667-60.53653334 80.52053333v543.65866667c0 46.7456 15.54346667 80.52053333 60.53653334 80.52053333h282.22933333c45.1104 0 80.63786667-33.8912 80.63786667-80.52053333v-21.26826667z"  horiz-adv-x="1024" />

    
    <glyph glyph-name="error3" unicode="&#59093;" d="M280.074871 59.06323099999997M327.112667 59.06323099999997M874.03103001 746.007031c-199.926628 199.990625-524.07143399 199.990625-723.99806302 0-199.990625-199.926628-199.926628-524.07143399 0-723.998063 199.926628-199.990625 524.07143399-199.990625 723.99806299 0C1073.95765801 221.93559700000003 1073.95765801 546.01640501 874.03103001 746.007031L874.03103001 746.007031zM178.959611 50.93561199999999c-183.67139001 183.607393-183.67139001 482.473384 0 666.080777 183.67139001 183.607393 482.473384 183.607393 666.080777 0 183.607393-183.67139001 183.607393-482.473384 0-666.080777C661.432995-132.7357780100001 362.567005-132.7357780100001 178.959611 50.93561199999999L178.959611 50.93561199999999zM743.669141 586.7184979900001L714.74249601 615.64514201 512 412.96664201 310.217459 614.685187 281.29081401 585.7585429999999 483.009359 383.976001 281.29081401 182.19345999999996 310.217459 153.26681599999995 512 354.98536 714.74249601 152.30686100000003 743.669141 181.23350500000004 540.990641 383.976001 743.669141 586.7184979900001Z"  horiz-adv-x="1024" />

    
    <glyph glyph-name="male" unicode="&#58954;" d="M445.785312-128c-113.716194 0-220.625449 44.283239-301.033874 124.691663s-124.691663 187.31768-124.691663 301.033874c0 113.714638 44.283239 220.623893 124.691663 301.033874s187.31768 124.691663 301.033874 124.691663c113.714638 0 220.623893-44.283239 301.033874-124.691663s124.691663-187.31768 124.691663-301.033874c0-113.716194-44.283239-220.623893-124.691663-301.033874S559.499949-128 445.785312-128zM445.785312 630.056075c-183.248771 0-332.330538-149.083324-332.330538-332.330538 0-88.768833 34.568602-172.225048 97.337825-234.99427 62.769222-62.767666 146.22388-97.336268 234.99427-97.336268 183.248771 0 332.330538 149.081767 332.330538 332.330538C778.11585 480.972751 629.032526 630.056075 445.785312 630.056075zM869.13224 839.8578210000001l70.205021-61.603341-202.988143-231.331394-70.205021 61.603341 202.988143 231.331394ZM755.657466 798.697868c-25.362969 0-46.166705 20.304073-46.669481 45.776002-0.509003 25.784803 19.98186 47.100655 45.766663 47.609657l197.654949 3.900798c25.734992 0.507446 47.100655-19.98186 47.609657-45.766663 0.509003-25.784803-19.98186-47.100655-45.766663-47.609657l-197.654949-3.900798C756.283212 798.700981 755.968782 798.697868 755.657466 798.697868zM957.214769 604.943716c-25.362969 0-46.166705 20.304073-46.669481 45.776002l-3.902354 197.654949c-0.509003 25.784803 19.98186 47.100655 45.766663 47.609657 25.734992 0.507446 47.100655-19.98186 47.609657-45.766663l3.902354-197.654949c0.509003-25.784803-19.98186-47.100655-45.766663-47.609657C957.842073 604.946829 957.527643 604.943716 957.214769 604.943716z"  horiz-adv-x="1024" />

    
    <glyph glyph-name="drop-up" unicode="&#58890;" d="M893.382 162.34199999999998l-57.997-57.997-381.436 381.436 57.997 57.997 381.436-381.436zM188.623 104.21400000000006l-57.997 57.997 381.436 381.436 57.997-57.997-381.436-381.436z"  horiz-adv-x="1024" />

    
    <glyph glyph-name="list2" unicode="&#59301;" d="M128 646.4m-64 0a64 64 0 1 1 128 0 64 64 0 1 1-128 0ZM128 387.2m-64 0a64 64 0 1 1 128 0 64 64 0 1 1-128 0ZM128 131.20000000000005m-64 0a64 64 0 1 1 128 0 64 64 0 1 1-128 0ZM928 614.4H352c-16 0-32 12.8-32 32 0 16 12.8 32 32 32h576c16 0 32-12.8 32-32 0-16-12.8-32-32-32zM928 355.20000000000005H352c-16 0-32 12.8-32 32s12.8 32 32 32h576c16 0 32-12.8 32-32 0-16-12.8-32-32-32zM928 99.20000000000005H352c-16 0-32 12.8-32 32 0 16 12.8 32 32 32h576c16 0 32-16 32-32s-12.8-32-32-32z"  horiz-adv-x="1024" />

    
    <glyph glyph-name="recharge" unicode="&#58916;" d="M12.2752 784.2048h430.0032L410.368 896h212.4928l25.8048-111.7952h386.9952v-154.8032H558.3744L332.5312 445.0304l384.2304 21.0944-54.8096 72.1408 138.752 91.136L1027.072 349.9008l-124.6976-111.7952-64.4992 64.4992-98.9056-4.3008v-245.2096h255.9104v-163.2896H558.3744V294.0032l-101.5552-4.224L213.4528-124.928 63.872-28.339200000000005l190.848 305.792-113.4464-13.5552-77.4016 159.104L308.992 629.4015999999999H12.2752z"  horiz-adv-x="1036" />

    
    <glyph glyph-name="shop" unicode="&#58956;" d="M1109.955 568.97a14.889 14.889 0 0 1-0.321 1.673c-0.488 2.377-1.135 4.667-2.06 6.868L1012.86 816.074C996.45 865.544 949.339 895.874 894.225 896H229.4c-55.843 0-99.237-30.051-114.959-77.556L12.614 575.02c-0.482-1.434-1.013-3.555-1.456-5.726C3.764 546.3199999999999 0.048 522.732 0.048 499.057c0.08-83.237 45.214-159.24 117.747-198.366 0 0 0-0.043 0.043-0.043 0.036 0 0.036 0 0.036-0.037 0 0 0.043 0 0.043-0.043 29.86-16.108 64.974-24.281 104.532-24.281 66.306 0.2 127.729 29.677 169.588 80.132 41.66-50.044 102.596-79.315 168.785-79.727 65.658 0.53 126.434 29.926 167.892 79.927 41.865-50.45 103.361-79.802 169.994-79.802 40.33 0.2 76.128 8.79 106.272 25.51 71.44 39.496 115.766 115.21 115.729 197.593 0.115 23.666-3.719 47.423-10.754 69.05zM966.307 374.078c-18.306-10.142-41.13-15.334-67.68-15.497-49.215 0-94.07 25.266-120.256 68.156-1.856 4.047-4.97 10.747-10.784 17.21-6.671 7.56-18.793 16.514-38.751 16.514-16.087 0-30.67-6.663-38.913-16.88-5.455-6.215-8.446-12.39-10.586-16.888-25.865-42.352-70.35-67.868-118.559-68.237-48.807 0.288-93.422 25.715-119.441 68.399-1.82 3.761-4.852 10.1-9.575 15.458-18.996 22.932-61.503 21.747-78.07 1.759-6.097-6.749-9.292-13.538-11.35-18.155-26.106-42.359-70.998-67.749-119.97-67.911-26.107 0-48.451 4.947-66.474 14.68h-0.078c-46.226 24.897-74.957 73.307-74.994 126.288 0 15.66 2.583 31.441 7.756 46.813 0.363 1.104 0.684 2.327 0.968 3.599L189.84 789.29c2.06 6.131 8.288 24.816 39.48 24.816h665.02c12.812-0.774 34.873-3.063 42.71-26.407l93.908-236.596a58.417 58.417 0 0 1 1.215-4.706c5.21-15.414 7.793-31.072 7.793-46.604 0.088-52.37-28.157-100.53-73.659-125.715zM996.61 242.88c-22.343 0-40.404-18.271-40.404-40.88l0.08-223.067c0-12.671-10.22-22.977-22.706-23.013l-760.265-0.495c-12.528 0-22.707 10.22-22.707 22.814l-0.285 219.217c-0.042 22.572-18.146 40.806-40.41 40.806h-0.079c-22.302-0.043-40.368-18.359-40.325-40.968l0.285-219.097c0-57.645 46.427-104.538 103.52-104.538l760.382 0.487c57.02 0.125 103.405 47.143 103.405 104.83L1037.02 202c0.001 22.608-18.102 40.88-40.41 40.88zM876.565 529.063h-646.52c-22.3 0-40.409 18.317-40.409 40.886 0 22.57 18.109 40.887 40.41 40.887h646.52c22.344 0 40.404-18.316 40.404-40.887-0.002-22.569-18.06-40.886-40.405-40.886z"  horiz-adv-x="1121" />

    
    <glyph glyph-name="delete" unicode="&#58939;" d="M354.93 122.07899999999995c14.459 0 26.158 11.7 26.158 26.158V435.975c0 14.459-11.699 26.158-26.158 26.158s-26.158-11.701-26.158-26.158v-287.739c0-14.459 11.7-26.157 26.158-26.157z m156.95 0c14.46 0 26.158 11.7 26.158 26.158V435.975c0 14.459-11.7 26.158-26.158 26.158s-26.158-11.701-26.158-26.158v-287.739c-0.001-14.459 11.698-26.157 26.158-26.157z m156.949 0c14.459 0 26.158 11.7 26.158 26.158V435.975c0 14.459-11.7 26.158-26.158 26.158s-26.158-11.701-26.158-26.158v-287.739c0-14.459 11.699-26.157 26.158-26.157z m130.789 601.637H691.281c-11.7 45.01-52.316 78.474-100.928 78.474H433.404c-48.612 0-89.229-33.464-100.928-78.474H224.14c-57.706 0-104.632-46.953-104.632-104.633v-26.159h26.158v-26.158h52.316v-497.004c0-57.681 46.927-104.632 104.632-104.632h418.53c57.708 0 104.633 46.952 104.633 104.632V566.767h52.316v26.158h26.158v26.159c0 57.68-46.925 104.632-104.632 104.632z m-366.213 26.158h156.949c19.26 0 35.967-10.601 45.037-26.158h-247.02c9.069 15.557 25.775 26.158 45.036 26.158zM773.46 69.76300000000003c0-28.866-23.475-52.316-52.316-52.316h-418.53c-28.84 0-55.943 23.451-55.943 52.316l3.627 497.004H773.46v-497.004zM171.823 619.0840000000001c0 28.866 23.477 52.316 52.316 52.316h575.48c28.842 0 52.316-23.451 52.316-52.316H171.823z"  horiz-adv-x="1024" />

    
    <glyph glyph-name="alipay" unicode="&#58903;" d="M256.8064 341.10400000000004c-24.7744-2.4832-71.344-13.45493333-96.81386667-35.99573333-76.35946667-66.528-30.68266667-188.2176 123.82293334-188.2176 89.76426667 0 179.52853333 57.39413333 249.97973333 149.29386666-100.18986667 48.95253333-185.18826667 83.9552-276.93866667 74.91946667z m576.26986667-84.10453333c142.98773333-47.91146667 175.40906667-50.44266667 175.40906666-50.44266667V721.4112A158.97493333 158.97493333 0 0 1 849.46026667 880.48533333H174.5888A159.024 159.024 0 0 1 15.51466667 721.4112v-674.8224a159.024 159.024 0 0 1 159.07413333-159.07413333H849.46133333a158.97493333 158.97493333 0 0 1 159.02506667 159.07413333v6.4544s-258.272 107.7376-388.74773333 170.3936c-87.38133333-107.58826667-200.28266667-172.92586667-317.40266667-172.92586667-198.09813333 0-265.4208 173.3728-171.58613333 287.51466667 20.45546667 24.82453333 55.25973333 48.65493333 109.22666666 61.9616 84.50133333 20.75306667 218.9504-12.95893333 344.95786667-54.56426667a692.10026667 692.10026667 0 0 1 55.904 136.68266667H252.53653333V521.52533333h200.18346667v70.50026667H210.2368v39.2224h242.4832v100.63786667s0 16.98026667 17.1776 16.98026666h97.85813333v-117.61813333h239.8016v-39.3216H567.75573333v-70.50026667h195.7632a801.07733333 801.07733333 0 0 0-82.912-209.36746666c59.42826667-21.44853333 112.70186667-41.8048 152.42026667-55.1104z"  horiz-adv-x="1024" />

    
    <glyph glyph-name="drop-down" unicode="&#59186;" d="M130.618 465.66l57.997 57.997 381.436-381.436-57.997-57.997-381.436 381.436zM835.377 523.788l57.997-57.997-381.436-381.436-57.997 57.997 381.436 381.436z"  horiz-adv-x="1024" />

    
    <glyph glyph-name="home" unicode="&#59017;" d="M1084.042581 390.929067a26.2144 26.2144 0 0 0-17.8176-45.2608 25.941333 25.941333 0 0 0-17.8176 7.0656L546.135381 824.388267 43.897515 354.167467a26.0096 26.0096 0 0 0-36.864 1.297066 26.2144 26.2144 0 0 0 1.297066 36.9664L546.169515 896l537.873066-505.070933z m-937.335466-6.5536l399.018666 380.3136 401.339734-377.4464v-486.161067h-313.617067V180.565333l-174.421333 0.238934v-279.620267h-312.32V384.375467zM687.618048 801.006933h259.6864v-246.442666l-259.6864 246.442666z"  horiz-adv-x="1092" />

    
    <glyph glyph-name="download" unicode="&#58909;" d="M511.606154-126.81846199999995C229.060923-126.81846199999995 0.039385 101.848615 0.039385 384 0.078769 666.033231 229.100308 894.700308 511.606154 894.700308s511.488-228.667077 511.488-510.779077c0-282.112-229.021538-510.779077-511.488-510.779077z m0 974.532924c-256.512 0-464.423385-207.635692-464.423385-463.753847s207.950769-463.714462 464.384-463.714461c256.472615 0 464.344615 207.596308 464.344616 463.714461 0 256.118154-207.872 463.753846-464.344616 463.753847zM536.536615 125.79446199999995c-26.545231-26.505846-36.785231-10.515692-47.300923 0l-205.075692 204.8c-35.012923 34.934154 6.695385 64.708923 34.658462 36.78523l170.41723-178.60923V629.838769c0 50.254769 47.300923 45.607385 47.300923 0v-441.068307l170.417231 178.60923c27.254154 27.214769 76.288 4.726154 34.658462-36.824615l-205.075693-204.8"  horiz-adv-x="1024" />

    
    <glyph glyph-name="ranking" unicode="&#58893;" d="M513.96608 666.87488c-218.07104 0-394.87488-177.94048-394.87488-397.44S295.89504-128 513.96608-128s394.91584 177.94048 394.91584 397.44-176.77824 397.44-394.91584 397.44z m203.07968-361.984l-77.85472-76.38528 18.36544-107.86304c6.18496-36.20352-14.38208-52.04992-47.31904-34.61632l-96.256 50.93376-96.2304-50.944c-32.30208-17.08544-53.61664-2.31936-47.32928 34.61632l18.3808 107.86304-77.85472 76.40064c-26.14272 25.63584-18.75968 50.5856 18.08896 55.9872l107.59168 15.744 48.128 98.11968c16.15872 32.95232 42.04544 33.60768 58.51648 0l48.128-98.11968 107.58656-15.744c36.11648-5.27872 44.73344-29.8496 18.0736-55.9872zM883.13856 896H638.976a27.84256 27.84256 0 0 1-26.84416-21.56544l-75.264-149.36576s161.15712-9.77408 256.36352-102.02112l112.41984 228.29568A27.8784 27.8784 0 0 1 911.36 867.6096 28.30848 28.30848 0 0 1 883.13856 896zM487.12704 725.0585599999999L411.87328 874.42944A27.86304 27.86304 0 0 1 385.024 896H140.84608A28.29824 28.29824 0 0 1 112.64 867.60448a27.81696 27.81696 0 0 1 5.7088-16.26624l112.41984-228.30592c95.20128 92.25728 256.3584 102.02624 256.3584 102.02624z"  horiz-adv-x="1024" />

    
    <glyph glyph-name="gift" unicode="&#58951;" d="M924.672 705.408h-36.128q28.096 46.816 24.064 86.944-5.344 50.848-53.504 81.6Q809.6 907.392 737.376 890.016q-57.536-14.72-119.072-60.192t-107.008-104.352q-44.16 58.848-105.664 104.352T286.592 890.016Q214.368 907.392 164.864 873.952q-48.16-30.752-53.504-81.6-4-41.472 24.064-86.944H99.296q-40.128 0-69.568-29.44T0.288 606.4v-127.072q0-32.096 19.392-58.176t50.176-35.456q-5.344-16.064-5.344-33.44v-381.248q0-40.128 28.768-69.568T163.52-128h696.928q41.472 0 70.24 29.44t28.768 69.568V352.256q0 17.376-5.344 33.44 30.752 9.376 50.176 35.456t19.392 58.176V606.4q0 40.128-29.44 69.568t-69.568 29.44zM860.48-57.087999999999965h-313.024v437.44h313.024q12.032 0 20.736-8.032t8.704-20.064v-381.248q0-12.032-8.704-20.064t-20.736-8.032zM586.24 705.408q37.472 42.816 82.944 74.24t85.6 42.144q41.472 9.376 66.88-6.688 18.72-12.032 20.064-29.44 4-33.44-41.472-80.256h-214.048z m366.528-98.976v-127.072q0-12.032-8.032-20.064t-20.064-8.032H547.424V634.528h377.248q12.032 0 20.064-8.032t8.032-20.064z m-476.224-226.08v-437.44H163.52q-12.032 0-20.736 8.032t-8.704 20.064V352.256q0 12.032 8.704 20.064t20.736 8.032h313.024zM182.24 785.696q1.344 17.376 20.064 29.44 25.408 17.376 66.88 6.688 40.128-10.688 85.6-42.144t82.944-74.24H223.68q-14.72 14.72-29.44 38.112t-12.032 42.144zM71.232 606.432q0 12.032 8.032 20.064t20.064 8.032h377.248v-183.264H99.328q-12.032 0-20.064 8.032t-8.032 20.064V606.432z"  horiz-adv-x="1024" />

    
    <glyph glyph-name="money-pile" unicode="&#58889;" d="M1020.81 385.595c0 70.18-127.601 127.601-287.103 127.601s-287.103-57.42-287.103-127.601v-379.614c0-86.13 143.552-133.981 287.103-133.981 137.172 0 274.343 41.47 287.103 121.221V385.595z m-287.103 63.8c137.172 0 213.732-44.66 223.302-63.8-9.57-19.14-86.13-63.8-223.302-63.8s-213.732 44.66-223.302 63.8c9.57 19.14 86.13 63.8 223.302 63.8z m-223.302-143.55c51.04-28.711 133.981-47.851 223.302-47.851s169.072 19.14 223.302 47.85v-108.46c0-25.521-86.13-70.182-223.302-70.182-133.981 0-216.922 41.47-223.302 66.991V305.84400000000005zM733.707-61.00999999999999c-133.981 0-216.922 41.47-223.302 66.99V111.25199999999995c54.23-31.9 140.361-44.66 223.302-44.66s169.072 15.95 223.302 47.85v-102.08c0-28.71-86.13-73.371-223.302-73.371zM382.804 576.9970000000001c133.981 0 248.822 28.71 319.003 70.18v-38.28c0-19.14 12.76-31.9 28.71-31.9h6.38c15.95 0 28.71 15.95 28.71 31.9V736.498C765.607 825.8199999999999 593.346 896 382.804 896S0 825.8199999999999 0 736.498v-545.495c9.57-98.89 146.741-162.691 350.903-162.691 19.14 0 31.9 12.76 31.9 31.9s-12.76 31.9-31.9 31.9c-188.211 0-287.102 57.42-287.102 111.651V350.505c60.61-41.47 159.501-63.801 287.102-63.801 19.14 0 31.9 12.76 31.9 31.9s-12.76 31.9-31.9 31.9c-185.021 0-283.912 51.041-287.102 102.082V650.3679999999999c70.18-44.66 185.021-73.371 319.003-73.371z m0 255.202c210.542 0 319.003-70.18 319.003-95.7s-108.461-95.701-319.003-95.701S63.8 710.9780000000001 63.8 736.498 172.26 832.2 382.804 832.2z"  horiz-adv-x="1024" />

    
    <glyph glyph-name="circle" unicode="&#58904;" d="M512 825.6c249.6 0 441.6-198.4 441.6-441.6s-192-441.6-441.6-441.6-441.6 198.4-441.6 441.6 192 441.6 441.6 441.6m0 64c-281.6 0-505.6-230.4-505.6-505.6s230.4-505.6 505.6-505.6 505.6 230.4 505.6 505.6S793.6 889.6 512 889.6z"  horiz-adv-x="1024" />

    
    <glyph glyph-name="category" unicode="&#58880;" d="M354.78528 454.20544L51.65056 454.20544c-25.83552 0-46.7456 20.93056-46.7456 46.73536L4.90496 804.11648c0 25.81504 20.91008 46.73536 46.7456 46.73536l303.13472 0c25.81504 0 46.75584-20.92032 46.75584-46.73536L401.54112 500.9408C401.54112 475.14624 380.61056 454.20544 354.78528 454.20544M951.28576 704.72704L589.42464 704.72704c-40.35584 0-73.07264 32.7168-73.07264 73.08288 0 40.35584 32.7168 73.0624 73.07264 73.0624l361.87136 0c40.3456 0 73.07264-32.70656 73.07264-73.0624C1024.3584 737.44384 991.6416 704.72704 951.28576 704.72704M951.28576 454.20544L589.42464 454.20544c-40.35584 0-73.07264 32.7168-73.07264 73.0624 0 40.35584 32.7168 73.07264 73.07264 73.07264l361.87136 0c40.3456 0 73.07264-32.7168 73.07264-73.07264C1024.3584 486.92224 991.6416 454.20544 951.28576 454.20544M358.2976-99.05151999999998L55.12192-99.05151999999998c-25.83552 0-46.73536 20.95104-46.73536 46.7456L8.38656 250.86976000000004c0 25.83552 20.91008 46.73536 46.73536 46.73536L358.2976 297.60512000000006c25.77408 0 46.7456-20.89984 46.7456-46.73536l0-303.16544C405.0432-78.10047999999995 384.06144-99.05151999999998 358.2976-99.05151999999998M954.78784 151.49055999999996L592.91648 151.49055999999996c-40.35584 0-73.10336 32.70656-73.10336 73.0624s32.73728 73.09312 73.10336 73.09312l361.87136 0c40.35584 0 73.07264-32.73728 73.07264-73.09312S995.15392 151.49055999999996 954.78784 151.49055999999996M954.78784-99.05151999999998L592.91648-99.05151999999998c-40.35584 0-73.10336 32.73728-73.10336 73.10336 0 40.3456 32.73728 73.0624 73.10336 73.0624l361.87136 0c40.35584 0 73.07264-32.70656 73.07264-73.0624C1027.86048-66.31424000000004 995.15392-99.05151999999998 954.78784-99.05151999999998"  horiz-adv-x="1028" />

    
    <glyph glyph-name="money" unicode="&#59037;" d="M811.641451 281.36443499999996H553.333384V404.383236h258.307044c22.847357 0 41.330314 18.482957 41.330314 41.337477 0 22.840194-18.482957 41.330314-41.330314 41.330314H598.554308L819.754223 699.263244c16.45681 15.832594 16.983813 41.97602 1.202384 58.447156-15.773242 16.500812-41.932018 16.9613-58.447156 1.209548L511.995907 518.5719280000001 261.4752 758.919948c-16.516162 15.750729-42.637076 15.223726-58.447157-1.209548-15.781428-16.471137-15.253402-42.614563 1.209548-58.447156l221.198891-212.211193H212.358549c-22.847357 0-41.330314-18.49012-41.330314-41.330314 0-22.854521 18.482957-41.337477 41.330314-41.337478h258.307044v-123.018801H212.358549c-22.847357 0-41.330314-18.475793-41.330314-41.330314 0-22.840194 18.482957-41.345664 41.330314-41.345663h258.307044v-159.768797c0-22.854521 18.49012-41.337477 41.330314-41.337477 22.854521 0 41.337477 18.482957 41.337477 41.337477v159.768797h258.307044c22.847357 0 41.330314 18.505469 41.330314 41.345663 0 22.854521-18.481933 41.329291-41.329291 41.329291z"  horiz-adv-x="1024" />

    
    <glyph glyph-name="flag" unicode="&#59598;" d="M178.296471-14.75764700000002c-28.912941 0-53.007059 24.094118-53.007059 53.007059v689.091764c0 28.912941 24.094118 53.007059 53.007059 53.007059 28.912941 0 53.007059-24.094118 53.007058-53.007059v-689.091764c0-28.912941-24.094118-53.007059-53.007058-53.007059z m106.014117 202.390588v549.345883c0 14.456471 12.047059 26.503529 26.50353 26.503529 4.818824 0 7.228235 0 12.047058-2.409412l549.345883-274.672941c12.047059-7.228235 19.275294-21.684706 12.047059-36.141176-2.409412-4.818824-7.228235-9.637647-12.047059-12.047059L322.861176 163.53882399999998c-12.047059-7.228235-28.912941-2.409412-36.141176 12.047058-2.409412 4.818824-2.409412 7.228235-2.409412 12.047059z"  horiz-adv-x="1024" />

    
    <glyph glyph-name="edit" unicode="&#58895;" d="M163.988 98.06550000000004h-0.3285V670.794h0.3465c0.171 33.624 27.3915 60.84 61.0155 60.993v0.369h368.181V793.518H225.0215v-0.3465c-67.446-0.18-122.1075-54.7515-122.4-122.193h-0.324v-572.931h0.3285c0.18-67.509 54.8685-122.193 122.3775-122.3595v61.3845c-33.633 0.135-60.8715 27.3555-61.0155 60.993zM315.575 188.55600000000004a29.8575 29.8575 0 0 1 42.1785 0.063l534.42 533.5155a29.88 29.88 0 0 1 0 42.1785 29.8665 29.8665 0 0 1-42.201 0.018L315.575 230.77499999999998a29.88 29.88 0 0 1 0-42.219zM653.471 763.962a30.7035 30.7035 0 0 1-29.5605 29.5605h-30.681v-61.362h30.681a30.7035 30.7035 0 0 1 29.5605 31.8015zM889.8155 507.156a30.681 30.681 0 0 1-30.681-30.681V97.71900000000005h-0.369c-0.1665-33.6195-27.378-60.8265-60.9975-60.9975v-0.0225H225.0215v-61.362h573.975v0.0585c66.717 0.801 120.6045 54.8415 121.1355 121.626h0.3645V476.475a30.7035 30.7035 0 0 1-30.681 30.681z"  horiz-adv-x="1024" />

    
    <glyph glyph-name="plus" unicode="&#59124;" d="M863.782995 426.53977666h-319.803653V746.34240666h-0.00614c0.001023 0.084934 0.00614 0.168846 0.00614 0.254803 0 17.662265-14.3181 31.980365-31.980365 31.980365-17.662265 0-31.980365-14.3181-31.980366-31.980365 0-0.084934 0.00614-0.168846 0.00614-0.254803h-0.00614V426.53977666H160.215982c-17.662265 0-31.980365-14.3181-31.980366-31.980365s14.3181-31.980365 31.980366-31.980366h319.802629v-319.802629c0-17.662265 14.3181-31.980365 31.980366-31.980366 17.662265 0 31.980365 14.3181 31.980365 31.980366V362.57904566h319.803653c17.662265 0 31.980365 14.3181 31.980365 31.980366s-14.3181 31.980365-31.980365 31.980365z"  horiz-adv-x="1024" />

    
    <glyph glyph-name="female" unicode="&#59002;" d="M774.39255525 748.93538072c-171.04033454 171.04033454-448.35587663 171.04033454-619.39621197-8e-7-171.0453347-171.0453347-171.0453347-448.36087678-0.00500016-619.40121132 160.00281327-160.00281327 412.9883075-170.31283312 584.99864422-30.96256013l28.00505495-28.00505496L660.03483114-37.393657640000015c-18.05003495-18.05003495-18.04753527-47.31759277 0-65.36512805S707.35242391-120.81132031000004 725.40245886-102.76128535999999l107.96271163 107.96271163 48.65509559-48.65509558c18.05003495-18.05003495 47.31759277-18.04753527 65.36512643 0s18.04753527 47.31759277 8e-7 65.36512726L898.73029774 70.56655350999995l107.96271163 107.96271164c18.05003495 18.05003495 18.04753527 47.31759277 0 65.36512805s-47.31759277 18.04753527-65.36512804 0l-107.96271164-107.96271163-28.00255447 28.00255447c139.34277235 172.00783703 129.0327525 424.9983306-30.97005997 585.00114468z m-556.89858949-556.89858948c-136.30526628 136.30526628-136.3027666 358.09320027 0.00500015 494.40096702 136.30526628 136.30526628 358.09070059 136.30526628 494.39596688 0 136.30526628-136.30526628 136.30776676-358.08820012 0-494.39596687s-358.09570075-136.31026643-494.40096703-0.00500015z"  horiz-adv-x="1024" />

    
    <glyph glyph-name="funnel" unicode="&#58891;" d="M865.82022768 688.22251056a76.17457603 76.17457603 0 0 0-21.35735776-39.39245995L614.75262147 406.85909629v-364.26160226c0-15.50385991-7.119119-26.02433604-21.35735775-31.5614292a44.05943822 44.05943822 0 0 0-12.0234012-1.81932975 31.08682059 31.08682059 0 0 0-24.12590473 10.20407066L441.28341555 138.94290824999996a30.05850338 30.05850338 0 0 0-10.20407143 23.17668828v242.84106844L178.03420502 648.90915141A79.33862927 79.33862927 0 0 0 161.81843337 732.6774550499999 71.74490167 71.74490167 0 0 0 190.05760622 767.00743043 77.28199482 77.28199482 0 0 0 232.77232173 779.50543945h557.98074793c15.42475835 0 29.66299711-4.19237046 42.71471629-12.49800902a75.85817055 75.85817055 0 0 0 32.4315433-78.78491987z m-68.58084921 7.9101323a9.25485501 9.25485501 0 0 1 2.37303992 10.5995777 8.70114561 8.70114561 0 0 1-8.85934873 6.01170021H232.77232173A9.49215892 9.49215892 0 0 1 223.43836595 706.73222056c-1.81933053-3.95506654-1.18651957-7.59372759 1.89843131-10.67867926l263.24921053-253.91525396a31.40322607 31.40322607 0 0 0 9.25485501-23.25578908v-242.84106843l50.0711392-53.78890106V420.78092958c0 9.25485501 3.08495167 17.00678496 9.254855 23.17668828l240.07252147 252.09592344z"  horiz-adv-x="1024" />

    
    <glyph glyph-name="news" unicode="&#58984;" d="M720.213333 80.21333300000003c0-20.48-17.066667-34.133333-34.133333-34.133333H167.253333c-20.48 0-34.133333 17.066667-34.133333 34.133333 0 20.48 17.066667 34.133333 34.133333 34.133334h518.826667c17.066667 0 34.133333-17.066667 34.133333-34.133334z m0 191.146667c0-20.48-17.066667-34.133333-34.133333-34.133333H167.253333c-20.48 0-34.133333 17.066667-34.133333 34.133333s17.066667 34.133333 34.133333 34.133333h518.826667c17.066667 3.413333 34.133333-13.653333 34.133333-34.133333z m0 218.453333c0-20.48-17.066667-34.133333-34.133333-34.133333h-187.733333c-20.48 0-34.133333 17.066667-34.133334 34.133333 0 20.48 17.066667 34.133333 34.133334 34.133334h187.733333c17.066667 0 34.133333-13.653333 34.133333-34.133334z m0 218.453334c0-20.48-17.066667-34.133333-34.133333-34.133334h-187.733333c-20.48 0-34.133333 17.066667-34.133334 34.133334s17.066667 34.133333 34.133334 34.133333h187.733333c17.066667 0 34.133333-13.653333 34.133333-34.133333zM197.973333 667.3066670000001c0 3.413333 3.413333 6.826667 6.826667 6.826666h139.946667c3.413333 0 6.826667-3.413333 6.826666-6.826666v-136.533334c0-3.413333-3.413333-6.826667-6.826666-6.826666H204.8c-3.413333 0-6.826667 3.413333-6.826667 6.826666v136.533334z m6.826667-211.626667h139.946667c40.96 0 78.506667 34.133333 78.506666 75.093333v136.533334c0 40.96-34.133333 75.093333-78.506666 75.093333H204.8c-40.96 0-78.506667-34.133333-78.506667-75.093333v-136.533334c3.413333-40.96 37.546667-75.093333 78.506667-75.093333z m747.52-491.52c0-13.653333-10.24-23.893333-23.893333-23.893333h-54.613334c-20.48 0-34.133333 17.066667-34.133333 34.133333V650.24h88.746667c13.653333 0 23.893333-10.24 23.893333-23.893333v-662.186667z m-846.506667-20.48c-20.48 0-34.133333 17.066667-34.133333 34.133333V790.1866669999999c0 20.48 17.066667 34.133333 34.133333 34.133333h624.64c20.48 0 34.133333-17.066667 34.133334-34.133333v-812.373334c0-13.653333 3.413333-23.893333 6.826666-34.133333H105.813333zM928.426667 721.92h-88.746667v68.266667c0 58.026667-47.786667 105.813333-105.813333 105.813333H109.226667C51.2 896 3.413333 848.213333 3.413333 790.1866669999999v-812.373334c0-58.026667 47.786667-105.813333 105.813334-105.813333H931.84c51.2 0 95.573333 40.96 95.573333 92.16V626.346667c-3.413333 54.613333-44.373333 95.573333-98.986666 95.573333z"  horiz-adv-x="1027" />

    
    <glyph glyph-name="user" unicode="&#58883;" d="M511.892837 306.89041899999995a288.291721 288.291721 0 0 0-205.085767 84.968186 288.125023 288.125023 0 0 0-84.968186 205.085767c0 77.514419 30.148465 150.337488 84.968186 205.109581A288.005953 288.005953 0 0 0 511.892837 887.045953c77.490605 0 150.313674-30.172279 205.109582-84.992 113.092465-113.092465 113.092465-297.102884 0-410.195348a288.386977 288.386977 0 0 0-205.109582-84.968186m0 532.861023a241.187721 241.187721 0 0 1-171.650977-71.108465 241.140093 241.140093 0 0 1-71.108465-171.674791c0-64.821581 25.242791-125.785302 71.108465-171.650977a241.187721 241.187721 0 0 1 171.650977-71.108465c64.845395 0 125.809116 25.290419 171.674791 71.108465 94.660465 94.636651 94.660465 248.665302 0 343.325768a241.306791 241.306791 0 0 1-171.674791 71.108465M981.504-111.52074400000004H42.496a23.623442 23.623442 0 0 0-23.647256 23.647256c0 131.691163 51.295256 255.499907 144.407814 348.612465 28.314791 28.338605 61.20186 42.10307 100.518698 42.10307 40.72186 0 83.086884-15.217116 124.02307-29.93414 41.150512-14.788465 83.706047-30.077023 124.094511-30.077023 40.364651 0 82.920186 15.288558 124.070698 30.077023 40.96 14.717023 83.301209 29.93414 124.046884 29.93414 39.293023 0 72.156279-13.740651 100.518697-42.10307a489.853023 489.853023 0 0 0 144.384-345.183256 23.647256 23.647256 0 0 0-23.409116-27.076465M66.762419-64.250047h890.260837a442.391814 442.391814 0 0 1-129.952744 291.530419c-19.265488 19.265488-40.555163 28.243349-67.036279 28.243349-32.482233 0-69.203349-13.19293-108.043907-27.147907-44.984558-16.14586-91.445581-32.863256-140.097489-32.863256-48.628093 0-95.136744 16.717395-140.073674 32.863256-38.840558 13.954977-75.53786 27.147907-108.043907 27.147907-26.481116 0-47.770791-8.97786-67.036279-28.243349a442.153674 442.153674 0 0 1-129.976558-291.530419"  horiz-adv-x="1024" />

    
    <glyph glyph-name="drop-right" unicode="&#59599;" d="M430.34 2.618000000000052l-57.997 57.99700001 381.436 381.43599999 57.997-57.997-381.436-381.436zM372.212 707.377l57.997 57.997 381.436-381.436-57.997-57.997-381.436 381.436z"  horiz-adv-x="1024" />

    
    <glyph glyph-name="drop-left" unicode="&#59600;" d="M733.658 765.3820000000001l57.997-57.997-381.436-381.436-57.997 57.997 381.436 381.436zM791.786 60.62300000000005l-57.997-57.997-381.43600001 381.436 57.99700001 57.997 381.436-381.436z"  horiz-adv-x="1024" />

    


  </font>
</defs>
</svg>
