<?xml version="1.0" standalone="no"?>
<!DOCTYPE svg PUBLIC "-//W3C//DTD SVG 1.1//EN" "http://www.w3.org/Graphics/SVG/1.1/DTD/svg11.dtd" >
<svg xmlns="http://www.w3.org/2000/svg">
<metadata>
Created by FontForge 20120731 at Wed Mar 29 10:02:24 2017
 By admin
</metadata>
<defs>
<font id="iconfont" horiz-adv-x="1024" >
  <font-face 
    font-family="iconfont"
    font-weight="500"
    font-stretch="normal"
    units-per-em="1024"
    panose-1="2 0 6 3 0 0 0 0 0 0"
    ascent="896"
    descent="-128"
    x-height="792"
    bbox="-56 -217.091 1097 1032"
    underline-thickness="0"
    underline-position="0"
    unicode-range="U+0078-EB78"
  />
<missing-glyph 
 />
    <glyph glyph-name=".notdef" 
 />
    <glyph glyph-name=".notdef" 
 />
    <glyph glyph-name=".null" horiz-adv-x="0" 
 />
    <glyph glyph-name="nonmarkingreturn" horiz-adv-x="341" 
 />
    <glyph glyph-name="x" unicode="x" horiz-adv-x="1001" 
d="M281 543q-27 -1 -53 -1h-83q-18 0 -36.5 -6t-32.5 -18.5t-23 -32t-9 -45.5v-76h912v41q0 16 -0.5 30t-0.5 18q0 13 -5 29t-17 29.5t-31.5 22.5t-49.5 9h-133v-97h-438v97zM955 310v-52q0 -23 0.5 -52t0.5 -58t-10.5 -47.5t-26 -30t-33 -16t-31.5 -4.5q-14 -1 -29.5 -0.5
t-29.5 0.5h-32l-45 128h-439l-44 -128h-29h-34q-20 0 -45 1q-25 0 -41 9.5t-25.5 23t-13.5 29.5t-4 30v167h911zM163 247q-12 0 -21 -8.5t-9 -21.5t9 -21.5t21 -8.5q13 0 22 8.5t9 21.5t-9 21.5t-22 8.5zM316 123q-8 -26 -14 -48q-5 -19 -10.5 -37t-7.5 -25t-3 -15t1 -14.5
t9.5 -10.5t21.5 -4h37h67h81h80h64h36q23 0 34 12t2 38q-5 13 -9.5 30.5t-9.5 34.5q-5 19 -11 39h-368zM336 498v228q0 11 2.5 23t10 21.5t20.5 15.5t34 6h188q31 0 51.5 -14.5t20.5 -52.5v-227h-327z" />
    <glyph glyph-name="access" unicode="&#xe616;" horiz-adv-x="1000" 
d="M334 -151q19 0 33 13.5t14 32.5v298h255v-298q0 -19 14 -32.5t33 -13.5t32.5 13.5t13.5 32.5v298h93v0h54q16 0 27.5 11t11.5 27t-11.5 27.5t-27.5 11.5h-15v100q0 155 -103 264q-76 82 -181 104v2v2v220q0 29 -20.5 49.5t-49.5 20.5t-49 -20.5t-20 -49.5v-220v-2.5v-1.5
q-100 -21 -174 -95v0q-53 -54 -81.5 -124.5t-28.5 -148.5v-100h-10q-17 0 -28 -11.5t-11 -27.5t11 -27t27 -11h145v-298q0 -19 13.5 -32.5t32.5 -13.5v0z" />
    <glyph glyph-name="qq" unicode="&#xe60b;" 
d="M971 227l-2 18l-3 17l-3 9l-2 9l-3 9l-4 10l-3 10l-4 9l-8 16l-6 14l-7 13l-5 11l-7 11l-5 9l-10 15l-12 19l-3 5l-1 2v1l2 7l3 6l2 11l2 6v6v5v5v6l-1 4l-2 10l-2 9l-3 8l-3 8l-4 7l-3 7l-3 6l-6 9l-2 3v2l-3 18l-1 11l-2 14l-3 15l-4 17l-3 9l-2 8l-3 9l-3 10l-3 9
l-4 10l-8 19l-5 9l-6 10l-5 9l-6 10l-7 9l-7 9l-8 10l-8 8l-8 8l-9 9l-5 3l-5 4l-11 7l-12 8l-12 7l-13 7l-13 6l-13 6l-14 4l-15 4l-13 4l-15 3l-13 4l-15 1l-14 2l-15 2h-43l-14 -1l-28 -4l-13 -2l-14 -3l-13 -3l-13 -4l-12 -4l-12 -4l-12 -6l-12 -5l-10 -6l-10 -6l-10 -7
l-10 -8l-8 -7l-12 -12l-10 -11l-10 -10l-9 -11l-9 -11l-7 -10l-7 -11l-4 -5l-3 -6l-7 -10l-5 -10l-5 -10l-4 -10l-4 -9l-3 -9l-3 -9l-4 -8l-4 -16l-3 -15l-1 -12l-2 -11v-21l-3 -3l-3 -4l-2 -4l-2 -4l-2 -9l-3 -9v-7l-1 -6v-6l-6 -8l-4 -9l-3 -8l-2 -7l-2 -7l-2 -6v-17l1 -4
l2 -7l1 -6l-3 -3l-9 -6l-12 -11l-7 -7l-7 -6l-5 -5l-4 -5l-9 -9l-8 -10l-7 -8l-8 -11l-7 -11l-7 -12l-7 -11l-5 -11l-5 -11l-4 -10l-4 -11l-3 -11l-3 -11l-3 -10l-2 -10l-1 -9l-2 -10l-1 -18v-24l1 -7l2 -13l1 -6l2 -5l2 -6l1 -3l3 -7l2 -2l2 -3h1h2h7l7 2l7 3l6 4l6 4l5 5
l6 5l5 6l5 6l4 6l4 4l2 6l5 8l2 4l1 2v3l1 2h1l2 1h1v-1h1h1l3 -12l2 -10l4 -10l4 -9l4 -9l5 -8l4 -9l4 -7l5 -7l3 -6l10 -12l9 -11l8 -8l8 -7l7 -6l11 -10l4 -2l2 -2v-1l-1 -1h-1h-2l-8 -1l-7 -1l-6 -1l-7 -1l-5 -2l-6 -2l-5 -2l-4 -3l-5 -1l-3 -3l-3 -2l-4 -3l-4 -5l-2 -3
l-2 -2l-3 -6l-2 -5l-1 -5l-1 -4v-9l-1 -4v-4l-1 -4v-3l1 -4l1 -4l2 -7l2 -3l2 -3l2 -3l3 -3l3 -3l2 -3l7 -5l8 -4l8 -5l9 -3l9 -4l11 -2l10 -4l11 -2l12 -2l11 -2l12 -1l24 -3h24h43h11l9 1l9 1l8 1l13 2l9 3l9 2l17 7l8 3l7 3l12 7l10 6l8 5l6 5l16 -2l14 -1h12l4 -1l4 -1
l7 -3l8 -2l14 -5l15 -5l14 -4l14 -3l15 -4l15 -2l15 -2l14 -2l14 -1l15 -1h40l13 1l13 1l12 2l11 3l11 2l11 3l5 1l5 2l9 3l8 4l8 4l8 4l6 5l3 3l3 4l4 4l4 6l1 3l1 3l2 3l1 3v4l1 3l-1 5l-1 4l-2 5l-1 4l-3 5l-3 5l-3 3l-4 4l-9 7l-10 8l-10 5l-10 6l-23 12l-6 3l-2 2l-1 1
l12 11l5 6l4 5l8 12l7 11l6 11l6 10l8 20l7 16l4 12l2 4l2 3l2 2h1h1l6 -12l5 -12l4 -7l4 -5l4 -7l5 -7l4 -5l3 -2l2 -3l2 -1l3 -2l4 -2l3 -1h4l2 1l4 1l3 2l3 2l3 3l3 4l2 3l3 5l2 3l2 6l2 4l3 11l2 12l2 14l1 8v22z" />
    <glyph glyph-name="angle_up" unicode="&#xe614;" 
d="M736 239l27 28l-250 249l-250 -249l27 -28l223 223z" />
    <glyph glyph-name="home" unicode="&#xe602;" 
d="M512 768q-264 -228 -411 -351q-16 -14 -16 -33q0 -18 12.5 -30.5t30.5 -12.5h85v-298q0 -18 12.5 -30.5t30.5 -12.5h128q18 0 30.5 12.5t12.5 30.5v170h170v-170q0 -18 12.5 -30.5t30.5 -12.5h128q18 0 30.5 12.5t12.5 30.5v298h85q18 0 30.5 12.5t12.5 30.5q0 20 -17 33
l-410 351v0z" />
    <glyph glyph-name="plus" unicode="&#xe69a;" 
d="M413 773h198v-290h290v-198h-290v-290h-198v290h-290v198h290v290z" />
    <glyph glyph-name="resource" unicode="&#xe609;" 
d="M320 78h685l-152 107h-559l-130 93h-127zM1005 266l-152 107h-559l-130 93h-127l283 -200h685zM1005 454l-282 200h-686l283 -200h685z" />
    <glyph glyph-name="weixin" unicode="&#xe629;" 
d="M693 549q16 0 35 -2q-23 109 -127.5 181.5t-238.5 72.5q-98 0 -181 -40.5t-132 -112t-49 -155.5q0 -144 145 -245l-36 -109l126 64q6 -1 25.5 -5t27 -5.5t22.5 -4t27 -3.5t25 -1q16 0 34 2q-11 38 -11 76q0 119 89.5 203t218.5 84zM498 647q21 0 33.5 -12.5t12.5 -33
t-12.5 -33t-33.5 -12.5t-37.5 13t-16.5 32.5t16.5 32.5t37.5 13zM245 556q-22 0 -38.5 13t-16.5 32.5t16.5 32.5t38.5 13q20 0 32.5 -12.5t12.5 -33t-12.5 -33t-32.5 -12.5zM1024 266q0 71 -43 132t-113.5 96t-151.5 35q-129 0 -218.5 -77t-89.5 -186t89.5 -186t218.5 -77
q36 0 109 18l99 -54l-27 91q127 95 127 208zM616 312q-13 0 -24.5 11t-11.5 24.5t11.5 25t24.5 11.5q20 0 33 -11t13 -25.5t-13 -25t-33 -10.5zM816 312q-14 0 -25 11t-11 24.5t11 25t25 11.5q19 0 32 -11t13 -25.5t-13 -25t-32 -10.5z" />
    <glyph glyph-name="user" unicode="&#xe6a0;" 
d="M889 111q0 -64 -39 -101t-104 -37h-468q-65 0 -104 37t-39 101q0 29 2 56t7.5 58t14 58t23 52.5t33 43.5t46 28.5t59.5 10.5q5 0 22.5 -11.5t40 -25.5t58 -25.5t71.5 -11.5t71.5 11.5t58 25.5t40 25.5t22.5 11.5q32 0 59.5 -10.5t46 -28.5t33 -43.5t23 -52t14 -58
t7.5 -58.5t2 -56zM718 590q0 -85 -60.5 -145.5t-145.5 -60.5t-145.5 60.5t-60.5 145.5t60.5 145t145.5 60t145.5 -60t60.5 -145z" />
    <glyph glyph-name="enter" unicode="&#xe635;" 
d="M633 404l-128 160q-10 12 -25 12q-5 0 -11 -2q-21 -7 -21 -30v-96h-256q-27 0 -45.5 -18.5t-18.5 -45.5t18.5 -45.5t45.5 -18.5h256v-96q0 -23 21 -30q6 -2 11 -2q15 0 25 12l128 160q16 20 0 40zM448 640h256v0q27 0 45.5 -18.5t18.5 -45.5v-384v0v0q0 -27 -18.5 -45.5
t-45.5 -18.5h-256q-27 0 -45.5 -18.5t-18.5 -45.5t18.5 -45.5t45.5 -18.5h320q53 0 90.5 37.5t37.5 90.5v512q0 53 -37.5 90.5t-90.5 37.5h-320q-27 0 -45.5 -18.5t-18.5 -45.5t18.5 -45.5t45.5 -18.5z" />
    <glyph glyph-name="guide" unicode="&#xe62f;" 
d="M841 535l110 137l-110 137h-439q-22 0 -38.5 -16t-16.5 -39v-164q0 -23 16.5 -39t38.5 -16h55v-55h-274l-110 -137l110 -137h274v-223q0 -21 15 -36.5t37 -15.5h6q22 0 37 15.5t15 36.5v223h219q23 0 39 16t16 39v164q0 23 -16 39t-39 16h-219v55h274z" />
    <glyph glyph-name="phone" unicode="&#xe608;" 
d="M509 181q-76 61 -134 133q-13 17 -21 29t-14.5 26t-4.5 26t11 22l-191 191q-10 -13 -18 -36t-7.5 -67t16.5 -95t62.5 -123.5t121.5 -149.5q79 -81 154.5 -132t129.5 -68.5t99.5 -19t70 7t35.5 20.5l-186 186q-9 -10 -20.5 -11t-27.5 7t-32 19.5t-44 34.5zM887 53v0
l-146 145q-8 9 -20 9t-21 -9l-53 -53l187 -186l8.5 8.5l17 17t19.5 19l8 7.5v1q9 9 8.5 21t-8.5 20zM413 484v0q9 10 9 21.5t-9 20.5v0l-149 149q-9 9 -21 9t-20 -9l-53 -53l191 -190z" />
    <glyph glyph-name="font" unicode="&#xe6ec;" 
d="M455 565l-91 -242q17 0 72.5 -1t86.5 -1q10 0 30 1q-46 136 -98 243v0zM66 -27l1 42q13 4 30.5 7t30.5 5.5t26.5 7.5t23.5 15.5t17 27.5l127 330l150 387h68q5 -7 6 -11l110 -257q18 -42 57 -138t61 -147q8 -18 31 -77.5t39 -90.5q10 -24 18 -30q10 -8 47 -16t45 -11
q4 -20 4 -31q0 -2 -0.5 -6.5t-0.5 -6.5q-34 0 -102 4t-102 4q-41 0 -115.5 -3.5t-94.5 -4.5q0 23 2 42l70 15l6.5 1.5t8.5 2t7.5 2t8 3.5t6 4.5t5 5.5t1.5 8q0 8 -16.5 51.5t-38.5 95t-23 53.5l-241 1q-14 -31 -41 -104.5t-27 -87.5q0 -11 7.5 -19.5t23.5 -13.5t26 -7.5
t30.5 -4.5t21.5 -2q1 -10 1 -31q0 -5 -1 -14q-31 0 -93.5 5t-93.5 5q-4 0 -14 -2t-12 -2q-43 -8 -101 -8v1z" />
    <glyph glyph-name="calendar" unicode="&#xe658;" 
d="M135 -27h154v154h-154v-154zM323 -27h172v154h-172v-154zM135 161h154v172h-154v-172zM323 161h172v172h-172v-172zM135 367h154v154h-154v-154zM529 -27h172v154h-172v-154zM323 367h172v154h-172v-154zM735 -27h154v154h-154v-154zM529 161h172v172h-172v-172zM341 624
v154q0 7 -5.5 12t-12.5 5h-34q-7 0 -12 -5t-5 -12v-154q0 -7 5 -12t12 -5h34q7 0 12.5 5t5.5 12zM735 161h154v172h-154v-172zM529 367h172v154h-172v-154zM735 367h154v154h-154v-154zM752 624v154q0 7 -5 12t-12 5h-34q-7 0 -12.5 -5t-5.5 -12v-154q0 -7 5.5 -12t12.5 -5
h34q7 0 12 5t5 12zM958 658v-685q0 -28 -20.5 -48.5t-48.5 -20.5h-754q-28 0 -48.5 20.5t-20.5 48.5v685q0 28 20.5 48.5t48.5 20.5h68v51q0 36 25.5 61t60.5 25h34q36 0 61 -25t25 -61v-51h206v51q0 36 25 61t61 25h34q35 0 60.5 -25t25.5 -61v-51h68q28 0 48.5 -20.5
t20.5 -48.5z" />
    <glyph glyph-name="lock" unicode="&#xe6be;" 
d="M366 413h292v110q0 60 -42.5 103t-103.5 43t-103.5 -43t-42.5 -103v-110zM841 358v-329q0 -23 -16 -39t-39 -16h-548q-23 0 -39 16t-16 39v329q0 23 16 39t39 16h18v110q0 105 75.5 180.5t180.5 75.5t180.5 -75.5t75.5 -180.5v-110h18q23 0 39 -16t16 -39z" />
    <glyph glyph-name="bell" unicode="&#xe7bc;" 
d="M876 144q-1 2 -12 23.5t-21 48t-22 65t-19 92t-8 113.5q0 90 -52 162.5t-135 102.5q-6 35 -32.5 58t-62.5 23t-62.5 -23t-32.5 -58q-83 -30 -135 -102.5t-52 -163.5q0 -59 -7.5 -113t-19.5 -93t-22 -65.5t-21 -47.5l-11 -21q-2 -4 -5 -10.5t-4.5 -10.5t-2.5 -10t-1 -11
t2 -10q6 -13 18 -21t26 -8h173q11 -55 55 -91.5t102 -36.5t102 36.5t55 91.5h173q31 0 43 29q3 5 3.5 10t-1 10.5t-3 9.5t-4.5 11t-4 10z" />
    <glyph glyph-name="mobile" unicode="&#xe804;" 
d="M685 780h-346q-31 0 -52.5 -22t-21.5 -53v-642q0 -31 21.5 -53t52.5 -22h346q31 0 52.5 22t21.5 53v642q0 31 -21.5 53t-52.5 22zM413 742h198v-24h-198v24zM512 38q-20 0 -34.5 14.5t-14.5 35t14.5 35t34.5 14.5t34.5 -14.5t14.5 -35t-14.5 -35t-34.5 -14.5zM710 186
h-396v495h396v-495z" />
    <glyph glyph-name="align_justify" unicode="&#xe610;" 
d="M992 144v-69q0 -14 -10 -24t-24 -10h-892q-14 0 -24 10t-10 24v69q0 14 10 24t24 10h892q14 0 24 -10t10 -24zM992 350v-69q0 -14 -10 -24t-24 -10h-892q-14 0 -24 10t-10 24v69q0 14 10 24t24 10h892q14 0 24 -10t10 -24zM992 555v-68q0 -14 -10 -24t-24 -10h-892
q-14 0 -24 10t-10 24v68q0 14 10 24.5t24 10.5h892q14 0 24 -10.5t10 -24.5zM992 761v-68q0 -14 -10 -24.5t-24 -10.5h-892q-14 0 -24 10.5t-10 24.5v68q0 14 10 24t24 10h892q14 0 24 -10t10 -24z" />
    <glyph glyph-name="align_left" unicode="&#xe612;" 
d="M992 144v-69q0 -14 -10 -24t-24 -10h-892q-14 0 -24 10t-10 24v69q0 14 10 24t24 10h892q14 0 24 -10t10 -24zM786 350v-69q0 -14 -10 -24t-24 -10h-686q-14 0 -24 10t-10 24v69q0 14 10 24t24 10h686q14 0 24 -10t10 -24zM923 555v-68q0 -14 -10 -24t-24 -10h-823
q-14 0 -24 10t-10 24v68q0 14 10 24.5t24 10.5h823q14 0 24 -10.5t10 -24.5zM718 761v-68q0 -14 -10.5 -24.5t-24.5 -10.5h-617q-14 0 -24 10.5t-10 24.5v68q0 14 10 24t24 10h617q14 0 24.5 -10t10.5 -24z" />
    <glyph glyph-name="align_right" unicode="&#xe615;" 
d="M992 144v-69q0 -14 -10 -24t-24 -10h-892q-14 0 -24 10t-10 24v69q0 14 10 24t24 10h892q14 0 24 -10t10 -24zM992 350v-69q0 -14 -10 -24t-24 -10h-686q-14 0 -24 10t-10 24v69q0 14 10 24t24 10h686q14 0 24 -10t10 -24zM992 555v-68q0 -14 -10 -24t-24 -10h-823
q-14 0 -24 10t-10 24v68q0 14 10 24.5t24 10.5h823q14 0 24 -10.5t10 -24.5zM992 761v-68q0 -14 -10 -24.5t-24 -10.5h-617q-14 0 -24.5 10.5t-10.5 24.5v68q0 14 10.5 24t24.5 10h617q14 0 24 -10t10 -24z" />
    <glyph glyph-name="download" unicode="&#xe618;" 
d="M829 2h-639q-53 0 -90.5 37.5t-37.5 90.5v159q0 14 9.5 23t22.5 9h64q13 0 22.5 -9t9.5 -23v-95q0 -27 19 -45.5t45 -18.5h511q27 0 45.5 18.5t18.5 45.5v95q0 14 9.5 23t22.5 9h64q13 0 22.5 -9t9.5 -23v-159q0 -53 -37.5 -90.5t-90.5 -37.5v0zM250 628q10 10 23.5 10
t23.5 -10l149 -148v321q0 13 9 22.5t23 9.5h64q13 0 22 -9.5t9 -22.5v-321l149 148q10 10 24 10t23 -10l47 -46q10 -10 10 -23.5t-10 -23.5l-264 -264q-1 -1 -6.5 -4t-16 -6.5t-19.5 -3.5t-20 3.5t-16.5 6.5t-6.5 4l-264 264q-10 10 -10 23.5t10 23.5z" />
    <glyph glyph-name="angledown" unicode="&#xe61d;" 
d="M555 300l240 240q13 13 30.5 13t30 -12.5t12.5 -30t-12 -30.5l-270 -270q-13 -13 -31 -12q-18 -1 -31 12l-270 270q-12 13 -12 30.5t12.5 30t30 12.5t30.5 -13z" />
    <glyph glyph-name="email" unicode="&#xe67c;" 
d="M348 333l-328 -369q-4 10 -4 12v648q0 6 4 16zM527 189l120 113l330 -371q-8 -2 -10 -2h-908q-2 0 -10 2l330 371l120 -113q6 -6 14 -6t14 6zM975 669l-462 -431l-462 431q0 2 3 2h5h908h6q2 0 2 -2zM678 333l328 307q2 -10 2 -16v-648q0 -4 -2 -12z" />
    <glyph glyph-name="align_center" unicode="&#xe60c;" horiz-adv-x="1025" 
d="M992 144v-69q0 -14 -10 -24t-24 -10h-892q-14 0 -24 10t-10 24v69q0 14 10 24t24 10h892q14 0 24 -10t10 -24zM786 350v-69q0 -14 -10 -24t-24 -10h-480q-14 0 -24 10t-10 24v69q0 14 10 24t24 10h480q14 0 24 -10t10 -24zM923 555v-68q0 -14 -10 -24t-24 -10h-754
q-14 0 -24 10t-10 24v68q0 14 10 24.5t24 10.5h754q14 0 24 -10.5t10 -24.5zM718 761v-68q0 -14 -10.5 -24.5t-24.5 -10.5h-342q-14 0 -24.5 10.5t-10.5 24.5v68q0 14 10.5 24t24.5 10h342q14 0 24.5 -10t10.5 -24z" />
    <glyph glyph-name="eye" unicode="&#xe656;" 
d="M951 386q-87 135 -218 202q35 -59 35 -129q0 -105 -76 -181q-74 -75 -180 -75q-105 0 -181 75q-75 76 -75 181q0 70 35 129q-131 -67 -218 -202q77 -117 191 -187q114 -69 248 -69t248 69q114 70 191 187v0zM512 633q-71 0 -123 -51q-51 -51 -51 -123q0 -11 8 -19
t19.5 -8t19.5 8t8 19q0 49 35 84t84 35q12 0 19.5 8t7.5 19.5t-7.5 19.5t-19.5 8v0zM1012 347q-79 -131 -215 -211q-135 -79 -285.5 -79t-285.5 80t-214 210q-23 39 0 79q79 129 214 210q135 79 286 79t285 -79q136 -80 215 -210q23 -40 0 -79z" />
    <glyph glyph-name="underline" unicode="&#xe641;" 
d="M173 701q-17 1 -21 2l-2 41q7 1 19 1q28 0 53 -2q62 -4 78 -4q41 0 79 2q55 2 69 2q26 0 40 1v-6l1 -31v-4q-28 -4 -58 -4q-29 0 -38 -12q-6 -6 -6 -62q0 -6 2.5 -15t2.5 -12v-108l7 -132q3 -58 24 -95q16 -28 45 -43q42 -22 84 -22q49 0 89 13q27 8 47 24q23 17 31 30
q17 26 25 54q10 34 10 107q0 38 -2 61t-5.5 57.5t-6.5 74.5l-2 28q-2 32 -11 42q-16 16 -36 16l-47 -1l-7 1l1 41h40l96 -5q36 -2 93 5l8 -1q3 -18 3 -24q0 -4 -2 -15q-21 -6 -40 -6q-34 -5 -37 -8q-7 -7 -7 -19q0 -4 1 -13t1 -15q3 -9 10 -186q3 -92 -7 -143
q-7 -36 -19 -58q-18 -30 -53 -58q-35 -26 -86 -42q-51 -15 -120 -15q-79 0 -134 22q-56 22 -84 57q-29 36 -39 92q-8 38 -8 111v157q0 89 -8 101q-11 16 -69 18h-4zM874 37v31q0 6 -4.5 10.5t-10.5 4.5h-694q-6 0 -10.5 -4.5t-4.5 -10.5v-31q0 -6 4.5 -10.5t10.5 -4.5h694
q6 0 10.5 4.5t4.5 10.5z" />
    <glyph glyph-name="undo" unicode="&#xe65a;" 
d="M874 384q0 -73 -29 -140t-77.5 -115.5t-115.5 -77.5t-140 -29q-81 0 -154 34.5t-124 96.5q-4 5 -3.5 10.5t4.5 9.5l64 65q5 4 12 4q7 -1 11 -5q34 -45 84 -69.5t106 -24.5q49 0 93.5 19t77 51.5t51.5 77t19 93.5t-19 93.5t-51.5 77t-77 51.5t-93.5 19q-46 0 -88.5 -16.5
t-75.5 -47.5l65 -65q14 -15 6 -33q-8 -19 -28 -19h-210q-13 0 -22 9t-9 21v211q0 20 19 28t33 -6l61 -61q50 47 115 73.5t134 26.5q73 0 140 -29t115.5 -77.5t77.5 -115.5t29 -140v0z" />
    <glyph glyph-name="data2" unicode="&#xe60a;" 
d="M66 17q25 -5 68 -13.5t160 -22.5t217 -14q98 0 210 12.5t174 25.5l63 12v243l-892 1v-244v0zM66 308h892v241h-892v-241zM517 886q-214 0 -447 -49l-4 -1v-239h892v239v0q-28 7 -71 15t-157.5 21.5t-212.5 13.5v0v0v0zM517 886z" />
    <glyph glyph-name="ios" unicode="&#xe622;" 
d="M676.5 635.5q31.5 34.5 47.5 76.5t11 84q-42 -2 -88.5 -23t-75.5 -53q-30 -30 -47 -73t-12 -85q45 -2 89 18.5t75.5 55zM816 259q0 36 12 69t27.5 53.5t35.5 38t29.5 24t15.5 9.5q-65 87 -201 102q-38 3 -81 -9t-79 -25.5t-52 -13.5q-18 0 -80.5 22t-102.5 22
q-70 0 -130.5 -34.5t-99.5 -93.5q-36 -56 -44.5 -128t6.5 -141t42.5 -131.5t64.5 -111.5q23 -30 38.5 -47.5t39 -39.5t48 -32t50.5 -9q30 2 82.5 21.5t100.5 19.5q43 0 95 -20.5t87 -20.5q28 0 52 10t45.5 30t36 38t35.5 47q24 32 43 68t26 55t7 23q-2 0 -16.5 6t-37.5 22
t-44 38t-36 59t-15 80z" />
    <glyph glyph-name="order" unicode="&#xe61f;" horiz-adv-x="1141" 
d="M156 386l401 -374q20 -19 47 -19t46 19l249 277q21 24 32.5 42t11.5 39t-21 35l-398 360q-4 4 -20 7t-38 4.5t-52.5 2.5t-59.5 1.5t-62 0.5t-57.5 -0.5l-49 -1t-32.5 -1t-13 -0.5v0q-6 -389 16 -392zM231 696q20 20 48.5 20t48.5 -20t20 -48t-20 -48.5t-48.5 -20.5
t-48.5 20.5t-20 48.5t20 48zM962 317q-18 -20 -48 -52.5t-93 -102.5t-104 -117t-39 -48q19 -9 40.5 -5t37.5 20l227 275q37 55 36 88t-37 67l-339 319q-10 8 -28.5 12t-31.5 4h-14l373 -349q55 -35 26 -100z" />
    <glyph glyph-name="edit1" unicode="&#xe613;" 
d="M312 313l-92 -235l231 95zM982 814l-30 30q-24 24 -58.5 24t-58.5 -24l-58 -59l146 -147l59 59q24 24 24 58.5t-24 58.5zM316 325l21 21l147 -147l410 410l-147 147l30 29zM822 -10l-705 -1v706h494l77 82h-613q-17 0 -29.5 -12t-12.5 -30v-787q0 -17 12.5 -29t29.5 -12
h787q17 0 29 12t12 29v583l-83 -82l2 -459v0z" />
    <glyph glyph-name="reduce_indent" unicode="&#xe6e8;" horiz-adv-x="1025" 
d="M238 573v-309q0 -7 -5 -12t-12 -5q-8 0 -13 5l-154 154q-5 5 -5 12.5t5 12.5l154 154q5 5 13 5q7 0 12 -5.5t5 -11.5zM992 161v-103q0 -7 -5 -12t-12 -5h-926q-7 0 -12 5t-5 12v103q0 7 5 12t12 5h926q7 0 12 -5t5 -12zM992 367v-103q0 -7 -5 -12t-12 -5h-583q-7 0 -12 5
t-5 12v103q0 7 5 12t12 5h583q7 0 12 -5t5 -12zM992 573v-103q0 -7 -5 -12t-12 -5h-583q-7 0 -12 5t-5 12v103q0 6 5 11.5t12 5.5h583q7 0 12 -5.5t5 -11.5zM992 778v-103q0 -7 -5 -12t-12 -5h-926q-7 0 -12 5t-5 12v103q0 7 5 12t12 5h926q7 0 12 -5t5 -12z" />
    <glyph glyph-name="money" unicode="&#xe72e;" horiz-adv-x="1098" 
d="M439 238h219v55h-73v256h-65l-85 -79l44 -45q24 21 32 32h1v-164h-73v-55zM731 384q0 -40 -12 -81t-34 -76.5t-58 -58t-78.5 -22.5t-78.5 22.5t-58 58t-34 76.5t-12 81t12 81t34 76.5t58 58t78.5 22.5t78.5 -22.5t58 -58t34 -76.5t12 -81zM1024 238v292q-61 0 -103.5 43
t-42.5 104h-659q0 -61 -42.5 -104t-103.5 -43v-292q61 0 103.5 -43t42.5 -104h659q0 61 42.5 104t103.5 43zM1097 713v-658q0 -15 -11 -26t-25 -11h-1024q-15 0 -26 11t-11 26v658q0 15 11 26t26 11h1024q14 0 25 -11t11 -26z" />
    <glyph glyph-name="circle" unicode="&#xe6bb;" 
d="M9 384q0 -102 40 -195t107.5 -160.5t160.5 -107.5t195 -40t195 40t160.5 107.5t107.5 160.5t40 195t-40 195t-107.5 160.5t-160.5 107.5t-195 40t-195 -40t-160.5 -107.5t-107.5 -160.5t-40 -195z" />
    <glyph glyph-name="barcode" unicode="&#xe6fe;" 
d="M95 56v656h29v-656h-29zM138 56v656h15v-656h-15zM183 56v656h14v-656h-14zM256 56v656h14v-656h-14zM314 56v656h29v-656h-29zM388 56v656h14v-656h-14zM417 56v656h14v-656h-14zM446 56v656h15v-656h-15zM505 56v656h29v-656h-29zM578 56v656h29v-656h-29zM636 56v656
h30v-656h-30zM695 56v656h29v-656h-29zM739 56v656h29v-656h-29zM813 56v656h43v-656h-43zM871 56v656h15v-656h-15zM900 56v656h29v-656h-29z" />
    <glyph glyph-name="fontsize" unicode="&#xe60d;" 
d="M651 751v-174h-17q-16 60 -34 86t-50 42q-18 9 -63 9h-48v-612q0 -49 5.5 -61.5t21.5 -21.5t43 -9h21v-18h-336v18h22q28 0 45 10q12 6 19 22q5 12 5 60v612h-46q-65 0 -94 -28q-41 -38 -52 -109h-18v174h576v0zM949 548l-17 -12l-94 99l1 -506h-41l-1 506l-100 -99
l-16 12l132 203l136 -203v0zM688 194l17 13l94 -99l-1 505h42v-505l100 99l17 -12l-132 -203l-137 202v0z" />
    <glyph glyph-name="guide2" unicode="&#xe63c;" 
d="M816 524v0l92 100l-92 99v1h-632l88 -105l-88 -95h632zM598 839h-114v-73h114v73zM484 -54h114v136h-114v-136zM215 324v0v0v0v0l-92 -99l92 -100v-1h611l-84 97l84 103h-611zM598 366v116h-114v-116h114z" />
    <glyph glyph-name="overview" unicode="&#xe623;" 
d="M148 37q100 -107 242 -142q-36 85 -58 184q-97 -14 -184 -42v0zM318 606q-116 17 -219 51q-75 -110 -85 -243h286q3 104 18 192zM876 37q-88 28 -184 42q-22 -99 -58 -184q142 35 242 142v0zM724 414h286q-10 133 -85 243q-103 -34 -219 -51q15 -88 18 -192zM1010 342
h-286q-3 -104 -18 -192q117 -17 219 -51q75 110 85 243zM653 342h-282q3 -99 18 -183q64 5 123 5t123 -5q15 84 18 183zM404 89q28 -114 73 -208q25 -2 35 -2t35 2q45 94 73 208q-57 5 -108 5t-108 -5zM371 414h282q-3 99 -18 183q-64 -5 -123 -5t-123 5q-15 -84 -18 -183z
M876 718q-100 107 -242 143q36 -85 58 -184q96 14 184 41zM390 861q-142 -36 -242 -143q88 -27 184 -41q22 99 58 184zM620 667q-28 114 -73 208q-27 2 -35 2t-35 -2q-45 -94 -73 -208q57 -5 108 -5t108 5zM318 150q-15 88 -18 192h-286q10 -133 85 -243q102 34 219 51z
M1080 323v9v-9zM530 -192q142 4 263.5 73t197 185.5t89.5 256.5q-14 -140 -89.5 -256.5t-197 -185.5t-263.5 -73zM530 -192h-10h10zM520 -192h-8h8zM-56 332q11 -142 86.5 -260.5t198 -189t265.5 -74.5q-143 4 -265.5 74.5t-198 189t-86.5 260.5zM504 -192h-10h10zM512 -192
h-8h8zM172 835q151 113 340 113q-189 0 -340 -113zM550 947q183 -12 324 -129q-141 117 -324 129zM548 947h1.5h0.5h-0.5h-1.5zM512 948q18 0 36 -1q-18 1 -36 1z" />
    <glyph glyph-name="bank_card" unicode="&#xe627;" horiz-adv-x="1025" 
d="M930 790h-838q-38 0 -65 -27t-27 -65v-102h1022v102q0 38 -27 65t-65 27zM0 74q0 -38 27 -65t65 -27h838q38 0 65 27t27 65v385h-1022v-385v0zM836 209h76v-86h-76v86zM739 209h75v-86h-75v86zM645 209h76v-86h-76v86z" />
    <glyph glyph-name="set1" unicode="&#xe661;" 
d="M855 461h-62q-9 32 -26 62l45 44q15 15 15 36.5t-15 36.5l-36 36q-16 15 -37 15t-36 -15l-46 -45q-26 14 -57 23v62q0 21 -15 36t-37 15h-51q-21 0 -36 -15t-15 -36v-62q-32 -9 -60 -25l-46 47q-15 15 -36.5 15t-36.5 -15l-36 -36q-15 -15 -15 -36.5t15 -36.5l46 -46
q-15 -28 -24 -60h-62q-21 0 -36 -15t-15 -36v-52q0 -21 15 -36t36 -15h62q9 -31 23 -58l-45 -45q-15 -15 -15 -36.5t15 -36.5l36 -36q15 -15 36.5 -15t36.5 15l44 45q30 -17 62 -26v-62q0 -21 15 -36t36 -15h51q22 0 37 15t15 36v62q31 9 59 25l44 -44q15 -15 36 -15t37 15
l36 36q15 15 15 36.5t-15 36.5l-44 43q16 28 25 60h62q21 0 36 15t15 36v52q0 21 -15 36t-36 15zM522.5 231q-63.5 0 -108 45t-44.5 108t44.5 108t108 45t108.5 -45t45 -108t-45 -108t-108.5 -45z" />
    <glyph glyph-name="user1" unicode="&#xe61c;" 
d="M285 670q0 -49 15 -101t42.5 -98.5t72 -77t97.5 -30.5q51 0 95.5 30.5t72.5 77t43 99t15 100.5q0 93 -66 158.5t-160 65.5t-160.5 -65.5t-66.5 -158.5zM904 160q-67 87 -178 118l-74 -254q0 -18 -12.5 -30t-30.5 -12t-30.5 12.5t-12.5 29.5v202q0 22 -16 37t-38.5 15
t-38 -15t-15.5 -37v-202q0 -17 -13 -29.5t-30 -12.5q-18 0 -31 12t-13 30l-73 254q-111 -31 -179 -118q-12 -16 -20 -44t-8 -50v-106q0 -35 25 -60t61 -25h669q36 0 61 25t25 60v106q0 22 -7.5 50t-20.5 44z" />
    <glyph glyph-name="proceeds" unicode="&#xe6e0;" 
d="M365 620l295 1q13 2 40.5 41t34.5 81q9 42 -16 59t-90 17q-29 0 -46 -12.5t-21 -28t-8 -28t-9 -12.5q-3 0 -9.5 16t-18.5 38.5t-29 34.5q-15 10 -50.5 -10t-50.5 -20h-14.5t-15.5 -0.5t-14 -1t-14.5 -2.5t-12 -4.5t-12 -7t-8 -10t-6 -14t-1.5 -18.5q0 -34 31 -76.5
t45 -42.5v0zM352 611q-8 0 -14.5 -5t-6.5 -12t6.5 -12t14.5 -5h323q9 0 15 5t6 12t-6 12t-15 5h-323zM693 546h-355q-93 -54 -153 -152t-60 -222q0 -56 21 -98t56 -67.5t87 -41.5t106.5 -22t120.5 -6q67 0 121 6t104 22.5t84 42.5t54 68.5t20 98.5q0 118 -56.5 217.5
t-149.5 153.5v0zM589 301q11 0 19 -7.5t8 -17.5t-8 -17.5t-19 -7.5h-53v-24h53q11 0 19 -7.5t8 -17.5t-8 -17.5t-19 -7.5h-53v-52q0 -10 -7.5 -17.5t-18.5 -7.5t-18.5 7.5t-7.5 17.5v52h-53q-11 0 -19 7.5t-8 17.5t8 17.5t19 7.5h53v24h-53q-11 0 -19 7.5t-8 17.5t8 17.5
t19 7.5h53v14l-74 68q-8 7 -8.5 17t7 17.5t18.5 7.5t19 -7l66 -60l66 60q8 7 18.5 7t18.5 -7.5t7.5 -17.5t-8.5 -17l-78 -71v-11h53zM589 301z" />
    <glyph glyph-name="contract" unicode="&#xe6c5;" 
d="M895 759h-62v69q0 26 -18 45t-43 19h-627q-25 0 -43 -19t-18 -45v-754q0 -27 18 -46t43 -19h73v-64q0 -27 18 -48t43 -21h600q25 0 43 19t18 45v754q0 27 -18 46t-43 19h16zM418 759h246q30 0 30 -22q0 -14 -8.5 -23t-21.5 -9h-246q-12 0 -20.5 9t-8.5 23q-2 11 7 16.5
t22 5.5v0v0v0zM234 571h430q30 0 30 -21q0 -14 -8.5 -23t-21.5 -9h-430q-13 0 -22.5 9t-9.5 23q3 21 32 21v0v0v0zM234 384h430q30 0 30 -21q0 -14 -8.5 -23.5t-21.5 -9.5h-430q-13 0 -22.5 9.5t-9.5 23.5q3 21 32 21v0v0v0zM234 143q-32 0 -32 22q2 14 11 23t21 9h430
q11 0 16 -1t9.5 -5t4.5 -13q0 -14 -9 -24.5t-21 -10.5h-430zM889 -71h-618v80h506q25 0 40.5 19t15.5 46v631h54v-773l2 -3v0zM889 -71z" />
    <glyph glyph-name="sdk" unicode="&#xe6bf;" 
d="M7 405.5q-6 -12.5 -2 -26t17 -19.5l490 -242l490 242q13 6 17 19.5t-2 26t-19 17t-26 -2.5l-460 -227l-460 227q-13 7 -26 2.5t-19 -17zM22 159l490 -243l490 243q13 6 17 19t-2 25.5t-19 17t-26 -1.5l-460 -228l-460 228q-13 6 -26 1.5t-19 -17t-2 -25.5t17 -19v0z
M467 341q20 -9 45 -9t45 9l415 206q31 15 31 44.5t-31 45.5l-415 206q-20 9 -45 9t-45 -9l-415 -206q-31 -15 -31 -45t31 -45zM497 782q5 3 15 3t15 -3l384 -190l-384 -190q-5 -3 -15 -3t-15 3l-384 190z" />
    <glyph glyph-name="arrow_up" unicode="&#xe890;" horiz-adv-x="1028" 
d="M546 861q-12 12 -31 12v0h-1q-19 0 -31 -12l-315 -314l-23 -22q-13 -14 -13 -33q0 -17 11 -29q21 -21 49 -7l86 86l12 12l184 183v-801q0 -17 12 -29t28.5 -12t28.5 12t12 29v801l275 -274q13 -9 28 -8t26 12q12 12 12 28.5t-12 28.5l-46 47z" />
    <glyph glyph-name="operate3" unicode="&#xe681;" 
d="M921 266h-818q-13 0 -22.5 9.5t-9.5 22.5v-96q0 -40 28 -68t68 -28h227v-120h-142q-13 0 -22.5 -9.5t-9.5 -22.5t9.5 -22.5t22.5 -9.5h520q13 0 22.5 9.5t9.5 22.5t-9.5 22.5t-22.5 9.5h-126v120h211q40 0 68 28t28 68v96q0 -13 -9.5 -22.5t-22.5 -9.5zM857 836h-690
q-40 0 -68 -28t-28 -68v-442q0 13 9.5 22.5t22.5 9.5h818q13 0 22.5 -9.5t9.5 -22.5v442q0 40 -28 68t-68 28zM723 596l-122 -146q-9 -10 -23 -11h-1.5h-0.5q-13 0 -22 9l-97 91l-61 -66q-9 -9 -22 -9.5t-22.5 8t-10.5 22t8 23.5l83 90q10 10 23 10q12 1 23 -9l95 -90
l100 120q9 10 22 11t23.5 -7.5t11.5 -21.5t-7 -24z" />
    <glyph glyph-name="triangle_bottom" unicode="&#xe6a4;" 
d="M98 581q0 21 15.5 36.5t36.5 15.5h724q22 0 37 -15.5t15 -36.5t-15 -37l-363 -362q-15 -15 -36 -15t-36 15l-363 362q-15 16 -15 37z" />
    <glyph glyph-name="set" unicode="&#xe611;" horiz-adv-x="1036" 
d="M973 492h-91l-34 85l62 63q17 17 17 37t-17 37l-74 68q-31 32 -74 0l-62 -62q-37 22 -86 34v91q0 21 -17.5 36t-38.5 15h-97q-22 0 -39.5 -15t-17.5 -36v-91l-85 -34l-63 62q-13 17 -34 17t-34 -17l-74 -74q-17 -13 -17 -34t17 -34l62 -63q-22 -36 -34 -85h-91
q-21 0 -36 -17.5t-15 -39.5v-102q0 -22 15 -39.5t36 -17.5h91q3 -8 8.5 -22t14 -34t11.5 -29l-62 -63q-17 -17 -17 -37t17 -37l74 -68q31 -32 74 0l62 62q37 -22 86 -34v-91q0 -21 17.5 -36t38.5 -15h103q22 0 39.5 15t17.5 36v91l85 34l63 -62q17 -17 37 -17t37 17l74 74
q31 31 0 74l-63 62q22 37 34 86h91q21 0 36 17.5t15 38.5v97q-9 24 -25.5 40.5t-36.5 16.5v0zM512 156q-98 0 -165.5 67t-67.5 161q0 95 68 164t165 69q94 0 161 -67.5t67 -165.5q0 -94 -67 -161t-161 -67v0zM512 156z" />
    <glyph glyph-name="invitation2" unicode="&#xe619;" 
d="M207 545q0 -97 69 -166t166.5 -69t166 69t68.5 166v0q0 97 -68.5 166t-166 69t-166.5 -69t-69 -166zM627 93q0 55 24.5 101.5t66.5 77.5v0q-43 35 -94 58v0q-79 -67 -182 -67t-182 67v0q-107 -48 -177 -144.5t-82 -216.5v0h664v0q-38 56 -38 124v0zM848.5 268
q-72.5 0 -123.5 -51t-51 -123.5t51 -123.5t123.5 -51t123.5 51t51 123.5t-51 123.5t-123.5 51zM939 68h-65v0v-65q0 -10 -6.5 -17.5t-16.5 -8.5q-11 -1 -19.5 6.5t-8.5 19.5v65v0h-65q-10 0 -17.5 6.5t-8.5 16.5q-1 11 6.5 19.5t19.5 8.5h65v0v64q0 11 6.5 18.5t16.5 8.5
q11 1 19.5 -7t8.5 -19v-65v0h65q12 0 19.5 -8.5t6.5 -19.5q-1 -10 -8.5 -16.5t-17.5 -6.5z" />
    <glyph glyph-name="game" unicode="&#xe7b9;" 
d="M262 524q-23 0 -39.5 -16.5t-16.5 -39.5t16.5 -39.5t39.5 -16.5t39.5 16.5t16.5 39.5t-16.5 39.5t-39.5 16.5v0zM262 524zM1008 226q-14 98 -37 187t-56 167.5t-79 123t-98 39.5q-45 -5 -80 -16t-52.5 -22t-42 -19.5t-51.5 -8.5t-51.5 8.5t-42 19.5t-52.5 22t-80 16
q-52 5 -98 -39.5t-79 -123t-56 -167.5t-37 -187q-7 -52 -3.5 -88.5t15 -60t28.5 -36t36.5 -15.5t39 0.5t36.5 12t29 19.5q168 160 190 165q15 4 125 4t125 -4q22 -5 190 -165q12 -11 29 -19.5t36.5 -12t39 -0.5t36.5 15.5t28.5 36t15 60t-3.5 88.5v0zM262 356q-46 0 -79 33
t-33 79.5t33 79t79 32.5t79 -32.5t33 -79t-33 -79.5t-79 -33v0zM720 568q12 12 29 12t29 -12.5t12 -29.5t-12 -29t-29 -12t-29.5 12t-12.5 29t13 30v0zM637 434q-12 12 -12 29.5t12 29.5t29.5 12t29.5 -12t12 -29.5t-12 -29.5t-29.5 -12t-29.5 12v0zM771 360
q-13 -12 -30 -12.5t-29 12t-12 29.5t12 29t29 12t29.5 -12t12.5 -29t-12 -29v0zM853 434q-12 -12 -29.5 -12t-29.5 12t-12 29.5t12 29.5t29.5 12t29.5 -12t12 -29.5t-12 -29.5v0zM853 434z" />
    <glyph glyph-name="bullseye1" unicode="&#xe632;" 
d="M901.5 609.5q-60.5 103.5 -164 164t-225.5 60.5t-225.5 -60.5t-164 -164t-60.5 -225.5t60.5 -225.5t164 -164t225.5 -60.5t225.5 60.5t164 164t60.5 225.5t-60.5 225.5zM857 238.5q-30 -69.5 -80 -119.5t-119.5 -80t-145.5 -30t-145.5 30t-119.5 80t-80 119.5t-30 145.5
t30 145.5t80 119.5t119.5 80t145.5 30t145.5 -30t119.5 -80t80 -119.5t30 -145.5t-30 -145.5zM512 684q-124 0 -212 -88t-88 -212t88 -212t212 -88t212 88t88 212t-88 212t-212 88zM671 225q-66 -66 -159 -66t-159 66t-66 159t66 159t159 66t159 -66t66 -159t-66 -159z
M512 534q-62 0 -106 -44t-44 -106t44 -106t106 -44t106 44t44 106t-44 106t-106 44z" />
    <glyph glyph-name="bullet_list" unicode="&#xe600;" 
d="M247 635q0 -12 -8 -19.5t-19 -7.5h-137q-11 0 -19 7.5t-8 19.5v63q0 11 8 18.5t19 7.5h137q11 0 19 -7.5t8 -18.5v-63zM959 635q0 -12 -8 -19.5t-19 -7.5h-567q-11 0 -19 7.5t-8 19.5v63q0 11 8 18.5t19 7.5h567q11 0 19 -7.5t8 -18.5v-63zM247 376q0 -12 -8 -19.5
t-19 -7.5h-137q-11 0 -19 7.5t-8 19.5v62q0 12 8 19.5t19 7.5h137q11 0 19 -7.5t8 -19.5v-62zM959 376q0 -12 -8 -19.5t-19 -7.5h-567q-11 0 -19 7.5t-8 19.5v62q0 12 8 19.5t19 7.5h567q11 0 19 -7.5t8 -19.5v-62zM247 124q0 -11 -8 -19t-19 -8h-137q-11 0 -19 8t-8 19v63
q0 11 8 19t19 8h137q11 0 19 -8t8 -19v-63zM959 124q0 -11 -8 -19t-19 -8h-567q-11 0 -19 8t-8 19v63q0 11 8 19t19 8h567q11 0 19 -8t8 -19v-63z" />
    <glyph glyph-name="orderform" unicode="&#xe639;" 
d="M849 -84h-675q-18 0 -30 12t-12 30v759q0 18 12 30t30 12h84v-42q0 -17 12.5 -29.5t29.5 -12.5h422q18 0 30 12.5t12 29.5v42h85q17 0 29.5 -12t12.5 -30v-759q0 -18 -12.5 -30t-29.5 -12zM480 548h-190q-13 0 -22.5 -9t-9.5 -22t9.5 -22.5t22.5 -9.5h190q13 0 22 9.5
t9 22.5t-9 22t-22 9zM733 401h-443q-13 0 -22.5 -9.5t-9.5 -22.5t9.5 -22.5t22.5 -9.5h443q13 0 22 9.5t9 22.5t-9 22.5t-22 9.5zM733 253h-443q-13 0 -22.5 -9t-9.5 -22.5t9.5 -22.5t22.5 -9h443q13 0 22 9t9 22.5t-9 22.5t-22 9zM701 717h-380q-8 0 -14.5 6.5t-6.5 14.5
v42q0 9 6.5 15.5t14.5 6.5h106q0 35 24.5 59.5t59.5 24.5t60 -24.5t25 -59.5h105q9 0 15 -6.5t6 -15.5v-42q0 -8 -6 -14.5t-15 -6.5zM511.5 823q-8.5 0 -15 -6.5t-6.5 -15t6.5 -15t15 -6.5t14.5 6.5t6 15t-6 15t-14.5 6.5z" />
    <glyph glyph-name="gift" unicode="&#xe68e;" 
d="M476 637v-203h-420v163q0 19 13.5 32.5t32.5 13.5h192q-90 18 -92 73q-1 42 38 81t93.5 26.5t97 -47.5t85.5 -88q20 26 37 44.5t42 40t53.5 35t58.5 17.5q50 7 89 -32t33 -76q-9 -56 -96 -74h189q19 0 32.5 -13.5t13.5 -32.5v-163h-420l-1 205zM342 781q-49 20 -78 -28
q-21 -35 -5 -51q45 -46 211 -29q-67 84 -128 108zM772 702q10 12 6.5 30.5t-16.5 32.5t-32 20.5t-41 -3.5q-62 -30 -127 -108q44 -4 88 -2q101 4 122 30zM479 -52h-342q-17 0 -29.5 12t-12.5 30v411h384v-453v0zM929 -10q0 -18 -12 -30t-30 -12h-342v453h384v-411z" />
    <glyph glyph-name="settlement" unicode="&#xeb78;" 
d="M1010 470l-407 357q-40 32 -91 32q-50 0 -90 -32l-408 -357q-14 -16 -14 -38q0 -19 12 -34.5t30 -20.5q6 -3 15 -3h120v-372q0 -40 26.5 -66.5t66.5 -26.5h484q40 0 66.5 26.5t26.5 66.5v372h118h0.5h0.5h0.5h0.5h1h1q23 2 39 18.5t16 39.5q0 21 -14 38zM645 186h-87v-56
q0 -20 -13 -33.5t-33 -13.5t-33 13.5t-13 33.5v56h-84q-16 0 -25 11t-9 28q0 16 9 25.5t25 9.5h84v46h-84q-16 0 -25 11t-9 27.5t9 26.5t25 10h81l-85 85q-12 11 -12 27.5t11.5 28t28 11.5t27.5 -12l78 -78l79 79q11 11 27.5 11t27.5 -11.5t11 -27.5t-11 -28l-85 -85h82
q16 0 25 -10t9 -26.5t-9 -27.5t-25 -11v0h-83v-46h81q36 0 36 -39q0 -35 -31 -35z" />
    <glyph glyph-name="game1" unicode="&#xe674;" 
d="M1002 368q-35 147 -102 250q-49 74 -108 107q-41 23 -79 23q-29 0 -57 -13q-13 -6 -37 -16q-27 -11 -28 -12q-40 -18 -79 -18q-36 0 -71 15q-3 1 -33 14q-28 11 -44 19q-25 11 -51 11q-32 0 -68 -18q-55 -26 -102 -88q-57 -76 -94 -186q-44 -128 -47 -250v-10
q2 -74 21 -116q26 -57 80 -59h3q19 0 39 4q53 10 109 61q14 12 28 26q41 38 65 57q71 55 158 55q29 0 59 -6q59 -12 130 -65q22 -17 56 -43q46 -35 55 -42q42 -31 81 -41q17 -4 31 -4q57 0 84 61q18 39 20 94q4 92 -19 190zM973 181q-2 -46 -16 -77q-14 -32 -40 -32
q-9 0 -19 3v0q-30 7 -64 32q-21 16 -49 38l-6 4q-37 29 -56 43q-80 59 -148 74h-1q-35 7 -69 7q-104 0 -188 -65q-24 -20 -68 -60l-1 -1q-4 -4 -13 -12.5t-14 -12.5q-46 -42 -85 -49v0h-1q-15 -3 -29 -3h-2q-11 0 -19 5q-10 8 -18 25q-15 34 -16 96v10q2 114 43 234
q36 104 88 172v0v0q40 54 83 74h1q25 13 47 13q15 0 31 -7t46 -19l6 -3q17 -7 26 -11q44 -19 90 -19q49 0 99 23q3 1 9 3.5t8 3.5q1 0 4 1.5l5 2.5q22 9 39 17q19 8 37 8q25 0 55 -17q49 -27 91 -91v0q63 -95 96 -234q21 -91 18 -176zM330 602h-1q-45 0 -76.5 -32t-31.5 -77
t31 -77q32 -32 78 -32t78 32t31 78q0 45 -32 76.5t-77 31.5zM373 450q-17 -17 -42.5 -17t-43.5 17q-18 18 -18 43t18 42.5t42 18.5h1q25 0 42.5 -18t18 -43t-17.5 -43zM695 602h-1q-15 0 -26 -10q-10 -11 -10 -26t10.5 -25.5t25.5 -10.5t25.5 10t11 25t-10 26t-25.5 11z
M622 530h-1q-15 0 -26 -11q-10 -11 -10 -26t10.5 -25.5t25.5 -10.5t25.5 10t11 25.5t-10 26t-25.5 11.5zM695 457h-1q-15 0 -26 -11q-10 -11 -10 -26t10.5 -25.5t25.5 -10.5t25.5 10.5t11 25.5t-10 25.5t-25.5 11.5zM768 530h-1q-15 0 -26 -11t-10.5 -26t11 -25.5
t25.5 -10.5t25.5 10t10.5 25.5t-10 26t-25 11.5z" />
    <glyph glyph-name="windows" unicode="&#xe607;" horiz-adv-x="1025" 
d="M401 834q-40 1 -86 -9q-50 -10 -107 -33q-1 -1 -1 -2l-6 -17l-91 -312v-1q0 -3 1 -4l0.5 -0.5l0.5 -0.5v0l6 -4q0 -1 0.5 -1h0.5h2v0q2 0 3 1q122 48 209 37q37 -4 76 -20q29 -13 65 -35v0h1v0v-1v0h3l6 3h1q2 1 2 3l60 205l33 110l2 7l1 6v0v0v1q0 2 -1 3q-26 17 -49 29
l-1 1q-63 33 -131 34v0zM627 736l-3 -2v1l-2 -2q-5 -3 -6 -5v-1v0l-3 -11.5t-8.5 -30t-13 -43t-15 -51.5t-15.5 -54t-15.5 -51.5t-13 -43.5t-8.5 -30l-3 -11l-1 -2q0 -5 4 -5q11 -8 23 -15q54 -33 110 -45q34 -8 68 -8q38 0 77 7q59 10 119 36q2 1 3 3l97 329l1 1q0 3 -5 8
q-3 2 -5 3q-3 2 -6 0q-34 -14 -68 -24q-33 -9 -61 -13.5t-53 -5.5q-23 0 -47 3q-41 6 -79 24q-30 13 -67 38q-2 1 -4 1v0zM279 436q-26 -1 -53 -5q-29 -5 -60 -15q-33 -9 -69 -24v0q-1 0 -2 -2l-95 -328q0 -2 2 -4l6 -5v0q2 -1 4 -1q53 20 97 30q42 9 80 9q30 0 59 -7
q28 -6 52 -16q27 -12 63 -35v-1q2 -1 4 0q4 3 5 3l1 1q2 1 2 2v1q94 317 95 319l3 11v1v0q0 2 -1 3h-1v0q-77 52 -145 61q-23 3 -47 2v0zM515 339q-1 0 -4 -2l-1 -1l-1 -1q-5 -3 -5 -4v-1l-95 -325q-2 -5 3 -8q36 -23 71 -38q21 -9 42 -15q22 -6 46 -10q26 -3 52 -3
q29 0 56 4q31 4 63 13q33 10 68 25h1q2 1 2 3l46.5 159.5l46.5 159.5v1l1 1q0 2 -2 4l-2 1.5t-4 3.5l-2 1v1q-1 1 -5 0q-32 -11 -69 -19q-32 -8 -60 -11q-53 -7 -99 0q-41 6 -79 22q-31 14 -66 38q-3 1 -4 1v0z" />
    <glyph glyph-name="password" unicode="&#xe626;" 
d="M854 441h-57v171q0 118 -83.5 201.5t-201.5 83.5t-201.5 -83.5t-83.5 -201.5v-171h-57q-24 0 -40.5 -16.5t-16.5 -40.5v-456q0 -24 16.5 -40.5t40.5 -16.5h684q24 0 40.5 16.5t16.5 40.5v456q0 24 -16.5 40.5t-40.5 16.5zM569 104q0 -24 -16.5 -40.5t-40.5 -16.5
t-40.5 16.5t-16.5 40.5v114q0 23 16.5 40t40.5 17t40.5 -17t16.5 -40v-114zM683 441h-342v171q0 71 50 121t121 50t121 -50t50 -121v-171z" />
    <glyph glyph-name="money1" unicode="&#xe694;" 
d="M548 253h-58q-16 0 -26 10t-10 26.5t10 26.5t26 10h102q10 0 16 7.5t6 14.5q0 36 -22 36h-51v29q0 10 -7.5 16t-14.5 6q-10 0 -16 -7.5t-6 -14.5v-29q-42 0 -68 -27.5t-26 -67.5q0 -38 24.5 -62.5t62.5 -24.5h58q17 0 27 -10t10 -26.5t-10 -26.5t-27 -10h-109
q-10 0 -16 -7.5t-6 -14.5q0 -10 7.5 -16t14.5 -6h51v-36q0 -10 7.5 -16t14.5 -6q10 0 16 7.5t6 14.5v36h7q37 0 62.5 27t25.5 61q5 32 -21 56t-60 24zM898 311q-57 114 -109 175q-69 86 -139 138l102 197q5 6 2 14.5t-9 14.5q-33 44 -87 44q-13 0 -26.5 -3.5t-32.5 -10.5
t-21 -8q-6 -2 -15 -5.5t-14 -5t-11 -3t-11 -1.5h-15q-68 29 -124 29q-65 0 -124 -58q-10 -5 -11.5 -14.5t4.5 -14.5l117 -175q-46 -34 -139 -138q-52 -61 -109 -175q-51 -112 -51 -240q0 -82 57.5 -139.5t139.5 -57.5h480q82 0 139.5 57.5t57.5 139.5q0 128 -51 240z
M315 806q30 29 73 29q51 0 109 -29q4 0 15 -3.5t15 -3.5q40 0 72.5 22t58.5 22q21 0 43 -15l-102 -189h-174zM752 -75h-480q-60 0 -103 43t-43 103q0 199 146 379q40 50 83 87t62 44h190q69 -47 145 -131q146 -180 146 -379q0 -60 -43 -103t-103 -43z" />
    <glyph glyph-name="edit" unicode="&#xe606;" 
d="M935 662q-8 -9 -16 -17l-13 -13q-6 -7 -12 -11l-146 148q8 8 21 20t22 19q22 17 47 15t40 -10q16 -8 36 -30t31 -46q6 -15 7.5 -35.5t-17.5 -39.5v0zM521 542l168 168l147 -146q-93 -93 -169 -168q-32 -31 -63 -62t-57 -55l-41 -41l-20 -19q-7 -8 -17 -15.5t-22 -13
t-33 -13t-44 -14.5t-43.5 -13t-31.5 -7q-21 -3 -22.5 3t1.5 27q2 11 6 32q4 20 9 43q4 22 9 41t8 26q5 12 11 20.5t17 19.5zM889 385q22 0 43 -11t21 -45v-246q0 -31 -11.5 -56.5t-31 -44.5t-44.5 -29t-51 -10h-606q-26 0 -51 11.5t-44 31t-30.5 46t-11.5 56.5v605
q0 21 11.5 44.5t30.5 42.5t43 31.5t48 12.5h253q30 0 42.5 -22t12.5 -45t-12.5 -44t-42.5 -21h-199q-23 0 -37 -16t-14 -39v-510q0 -21 14 -36t37 -15h503q23 0 39 15t16 36v202q0 15 7 26t17.5 17.5t23 9.5t24.5 3v0v0zM889 385z" />
    <glyph glyph-name="bullseye" unicode="&#xe6d7;" 
d="M418 780h-247q-23 0 -39 -16t-16 -39v-247q0 -22 16 -38t39 -16h247q22 0 38 16t16 38v247q0 23 -16 39t-38 16zM418 344h-247q-23 0 -39 -16t-16 -38v-247q0 -23 16 -39t39 -16h247q22 0 38 16t16 39v247q0 22 -16 38t-38 16zM853 344h-247q-22 0 -38 -16t-16 -38v-247
q0 -23 16 -39t38 -16h247q23 0 39 16t16 39v247q0 22 -16 38t-39 16zM853 780h-247q-22 0 -38 -16t-16 -39v-247q0 -22 16 -38t38 -16h247q23 0 39 16t16 38v247q0 23 -16 39t-39 16z" />
    <glyph glyph-name="statistics" unicode="&#xe63b;" 
d="M287 329v-287h135v287l-68 56zM62 42h135v220l-135 -107v-113zM737 397v-355h135v467zM512 256v-214h135v282l-107 -90zM962 740h-259l107 -101l-276 -225l-180 151l-292 -230v-101l292 230l186 -152l332 270l90 -84v242zM962 740z" />
    <glyph glyph-name="list" unicode="&#xe6c4;" horiz-adv-x="1025" 
d="M238 494h-183q-23 0 -39 -16t-16 -39v-110q0 -23 16 -39t39 -16h183q23 0 39 16t16 39v110q0 23 -16 39t-39 16zM238 786h-183q-23 0 -39 -16t-16 -39v-109q0 -23 16 -39t39 -16h183q23 0 39 16t16 39v109q0 23 -16 39t-39 16zM238 201h-183q-23 0 -39 -16t-16 -39v-109
q0 -23 16 -39t39 -16h183q23 0 39 16t16 39v109q0 23 -16 39t-39 16zM969 494h-548q-23 0 -39 -16t-16 -39v-110q0 -23 16 -39t39 -16h548q23 0 39 16t16 39v110q0 23 -16 39t-39 16zM969 201h-548q-23 0 -39 -16t-16 -39v-109q0 -23 16 -39t39 -16h548q23 0 39 16t16 39
v109q0 23 -16 39t-39 16zM1008 770q-16 16 -39 16h-548q-23 0 -39 -16t-16 -39v-109q0 -23 16 -39t39 -16h548q23 0 39 16t16 39v109q0 23 -16 39z" />
    <glyph glyph-name="andriod" unicode="&#xe604;" 
d="M832 265q0 -26 19 -45t45 -19q27 0 45.5 19t18.5 45v247q0 26 -18.5 44.5t-45.5 18.5q-26 0 -45 -18.5t-19 -44.5v-247v0v0zM604 721q0 12 9.5 21t21.5 9q14 0 23 -9t9 -21q0 -13 -9 -22t-23 -9q-12 0 -21.5 9t-9.5 22v0v0zM361 721q0 12 9 21t22 9t22.5 -9t9.5 -21
q0 -13 -9.5 -22t-22.5 -9t-22 9t-9 22v0v0zM230 122q0 -21 14.5 -35t35.5 -14h56v-138q0 -26 18.5 -44.5t45.5 -18.5q26 0 45 19t19 44v138h99v-138q0 -26 18.5 -44.5t44.5 -18.5q27 0 45.5 19t18.5 44v138h57q21 0 35.5 14t14.5 35v451h-567v-451v0v0zM796 613
q-7 63 -46.5 114t-102.5 80l52 74q6 9 -2 13q-6 4 -13 -3l-54 -77q-61 21 -118 21q-59 0 -118 -21l-54 77q-7 8 -13 3q-8 -5 -2 -13l53 -74q-64 -30 -104 -80.5t-45 -113.5h567v0v0zM64 265q0 -26 18.5 -45t45.5 -19q26 0 45 19t19 45v247q0 26 -19 44.5t-45 18.5
q-27 0 -45.5 -18.5t-18.5 -44.5v-247v0v0z" />
    <glyph glyph-name="question" unicode="&#xe7ad;" 
d="M512 -64q125 0 232 65l216 -65l-89 180q89 119 89 268q0 122 -60 225t-163 163t-225 60t-225 -60t-163 -163t-60 -225t60 -225t163 -163t225 -60zM347 479q2 55 13 83t36 50.5t56 33t65 10.5q68 0 114 -40.5t46 -107.5q0 -30 -12 -54.5t-50 -61.5t-50.5 -52.5t-19 -37
t-5.5 -57.5h-67q0 42 7 67.5t20.5 44.5t49 55.5t46 53t10.5 49.5t-23.5 58.5t-68.5 25.5q-100 0 -100 -120h-67zM545 107h-73v77h73v-77z" />
    <glyph glyph-name="custom_service" unicode="&#xe680;" 
d="M511 657q-86 0 -146.5 -59t-60.5 -143t60.5 -143t146 -59t146 59t60.5 143t-60.5 143t-145.5 59v0v0zM272 377v187h-8q33 70 99.5 113t147.5 43t147.5 -43t98.5 -113h-8v-187q40 0 68 27.5t28 66.5q0 26 -13.5 47.5t-35.5 33.5q-31 88 -109 143.5t-176 55.5t-176 -55.5
t-109 -143.5q-23 -12 -36 -33.5t-13 -47.5q0 -39 28 -66.5t67 -27.5v0v0zM717 270q-87 -79 -206 -79t-206 79q-75 -38 -117.5 -102.5t-42.5 -150.5h734q0 86 -43 151t-119 102v0v0z" />
    <glyph glyph-name="qqqun" unicode="&#xe967;" horiz-adv-x="1025" 
d="M626 95q55 48 70 111q19 -30 37.5 -44t31.5 -7q18 10 15 57.5t-27 104.5q-17 44 -40 75t-42 39q1 6 1 11q0 34 -17 62q1 1 1 4q0 16 -7 29q-5 120 -75 199.5t-184 79.5t-184 -79.5t-75 -199.5q-6 -14 -6 -29v-4q-16 -28 -16 -62v-11q-19 -8 -41.5 -39t-40.5 -75
q-23 -57 -26.5 -104t15.5 -58q13 -7 31.5 7.5t37.5 43.5q15 -63 69 -111q-28 -11 -44.5 -28t-16.5 -36q0 -33 42.5 -56t102.5 -23q54 0 94.5 19t49.5 47h17q8 -28 48.5 -47t94.5 -19q60 0 102.5 23t42.5 56q0 19 -16 35.5t-45 28.5zM1003 244q-15 36 -33 60.5t-33 30.5
q1 6 1 9q0 28 -14 50v3q0 12 -5 23q-4 96 -60 159.5t-147 63.5q-17 0 -36 -3q7 -36 9 -72q7 -16 7 -35v-5q20 -33 20 -74q0 -5 -1 -14q23 -9 50 -46t49 -90q16 -39 24 -76q7 -40 0 -56q-2 -4 -3 -7t-1 -4v-1.5t-0.5 -1t-2.5 -3.5q-1 -1 -10.5 -12t-14.5 -14
q-6 -3 -26.5 -7.5t-25.5 -2.5q-14 6 -17 9l-25 16l-19 -26l-13 -18q29 -17 32 -26q9 -24 9 -29q-1 -7 -6 -30h-1q-4 -7 -1 -10h10q7 -23 39.5 -38t75.5 -15q48 0 82 18.5t34 44.5q0 32 -49 51q44 39 56 90q33 -53 55 -41q14 8 11.5 46t-20.5 83z" />
    <glyph glyph-name="data1" unicode="&#xe648;" 
d="M933 316q-8 -121 -71.5 -216t-168 -146.5t-228.5 -46.5q-116 4 -214 62.5t-156.5 156.5t-63.5 214q-4 124 47 228.5t146.5 168t215.5 72.5q14 1 23.5 -8.5t9.5 -22.5v-398q0 -13 9.5 -22t21.5 -9h398q14 0 23 -10t8 -23zM570 413h385q14 0 23 10t8 23q-12 167 -130 285
t-284 130q-14 1 -23.5 -8.5t-9.5 -22.5v-386q0 -13 9 -22t22 -9z" />
    <glyph glyph-name="indent" unicode="&#xe6ae;" 
d="M220 418.5q0 -7.5 -5 -12.5l-153 -154q-5 -5 -13 -5q-6 0 -12 4.5t-5 12.5v308q0 8 5 12.5t12.5 4.5t12.5 -4l153 -154q5 -5 5 -12.5zM992 161v-102q0 -7 -5 -13t-12 -5h-926q-6 0 -12 5t-5 13v102q0 7 5 12t12 6h926q6 0 12 -6t5 -12zM992 367v-103q0 -7 -5 -12.5
t-12 -4.5h-583q-7 0 -12.5 4.5t-4.5 12.5v103q0 6 4.5 12t12.5 5h583q6 0 12 -5t5 -12zM992 572v-103q0 -6 -5 -11t-12 -6h-583q-7 0 -12.5 6t-4.5 11v103q0 8 4.5 12.5t12.5 4.5h583q6 0 12 -4.5t5 -12.5zM992 779v-103q0 -8 -5 -12.5t-12 -4.5h-926q-6 0 -12 4.5t-5 12.5
v103q0 6 5 11t12 6h926q6 0 12 -6t5 -11z" />
    <glyph glyph-name="bold" unicode="&#xe7ac;" 
d="M820 325q-41 37 -124 54q58 23 90 73q30 49 30 109q0 72 -45 127q-47 55 -132 78q-60 14 -153 14h-339v-61h32q46 0 71 -14q19 -10 19 -47v-548q0 -34 -14 -44q-22 -17 -76 -17h-32v-61h383q137 0 204 24q66 23 104 76q39 52 39 110q0 74 -57 127zM390 706q48 13 98 13
q99 0 154 -47q53 -47 53 -110q0 -43 -12 -78q-11 -35 -54 -53q-42 -17 -129 -17q-42 0 -60 2q-31 2 -50 6v284zM698 91q-58 -42 -168 -42q-68 0 -140 14v286q16 2 42 3q8 0 28.5 1t33.5 1q83 0 140 -22q55 -21 89 -59q32 -38 32 -78q0 -62 -57 -104v0z" />
    <glyph glyph-name="server" unicode="&#xe60f;" 
d="M62 472v-176q0 -22 13 -39h874q13 17 13 39v176q0 22 -13 39h-874q-13 -17 -13 -39zM842 376q6 0 10.5 -4t4.5 -10.5t-4.5 -11t-10.5 -4.5t-10.5 4.5t-4.5 11t4.5 10.5t10.5 4zM812 422q6 0 10.5 -4.5t4.5 -11t-4.5 -11t-10.5 -4.5t-10.5 4.5t-4.5 11t4.5 11t10.5 4.5z
M782 376q6 0 10.5 -4t4.5 -10.5t-4.5 -11t-10.5 -4.5t-10.5 4.5t-4.5 11t4.5 10.5t10.5 4zM752 422q6 0 10.5 -4.5t4.5 -11t-4.5 -11t-10.5 -4.5t-10.5 4.5t-4.5 11t4.5 11t10.5 4.5zM722 376q6 0 10.5 -4t4.5 -10.5t-4.5 -11t-10.5 -4.5t-10.5 4.5t-4.5 11t4.5 10.5t10.5 4
zM692 422q6 0 10.5 -4.5t4.5 -11t-4.5 -11t-10.5 -4.5t-10.5 4.5t-4.5 11t4.5 11t10.5 4.5zM662 376q6 0 10.5 -4t4.5 -10.5t-4.5 -11t-10.5 -4.5t-10.5 4.5t-4.5 11t4.5 10.5t10.5 4zM632 422q6 0 10.5 -4.5t4.5 -11t-4.5 -11t-10.5 -4.5t-10.5 4.5t-4.5 11t4.5 11
t10.5 4.5zM602 376q6 0 10.5 -4t4.5 -10.5t-4.5 -11t-10.5 -4.5t-10.5 4.5t-4.5 11t4.5 10.5t10.5 4zM572 422q6 0 10.5 -4.5t4.5 -11t-4.5 -11t-10.5 -4.5t-10.5 4.5t-4.5 11t4.5 11t10.5 4.5zM219.5 452q27.5 0 47.5 -20t20 -48t-20 -48t-47.5 -20t-47.5 20t-20 48t20 48
t47.5 20zM949 542q13 17 13 39v176q0 29 -20.5 49t-48.5 20h-762q-28 0 -48.5 -20t-20.5 -49v-176q0 -22 13 -39h874v0zM842 662q6 0 10.5 -4.5t4.5 -11t-4.5 -11t-10.5 -4.5t-10.5 4.5t-4.5 11t4.5 11t10.5 4.5zM812 706q6 0 10.5 -4t4.5 -10.5t-4.5 -11t-10.5 -4.5
t-10.5 4.5t-4.5 11t4.5 10.5t10.5 4zM782 662q6 0 10.5 -4.5t4.5 -11t-4.5 -11t-10.5 -4.5t-10.5 4.5t-4.5 11t4.5 11t10.5 4.5zM752 706q6 0 10.5 -4t4.5 -10.5t-4.5 -11t-10.5 -4.5t-10.5 4.5t-4.5 11t4.5 10.5t10.5 4zM722 662q6 0 10.5 -4.5t4.5 -11t-4.5 -11
t-10.5 -4.5t-10.5 4.5t-4.5 11t4.5 11t10.5 4.5zM692 706q6 0 10.5 -4t4.5 -10.5t-4.5 -11t-10.5 -4.5t-10.5 4.5t-4.5 11t4.5 10.5t10.5 4zM662 662q6 0 10.5 -4.5t4.5 -11t-4.5 -11t-10.5 -4.5t-10.5 4.5t-4.5 11t4.5 11t10.5 4.5zM632 706q6 0 10.5 -4t4.5 -10.5
t-4.5 -11t-10.5 -4.5t-10.5 4.5t-4.5 11t4.5 10.5t10.5 4zM602 662q6 0 10.5 -4.5t4.5 -11t-4.5 -11t-10.5 -4.5t-10.5 4.5t-4.5 11t4.5 11t10.5 4.5zM572 706q6 0 10.5 -4t4.5 -10.5t-4.5 -11t-10.5 -4.5t-10.5 4.5t-4.5 11t4.5 10.5t10.5 4zM219.5 736q27.5 0 47.5 -19.5
t20 -47.5t-20 -47.5t-47.5 -19.5t-47.5 19.5t-20 47.5t20 47.5t47.5 19.5zM75 226q-13 -17 -13 -39v-176q0 -29 20.5 -49.5t48.5 -20.5h762q28 0 48.5 20.5t20.5 49.5v176q0 22 -13 39h-874zM219.5 32q-27.5 0 -47.5 19.5t-20 47.5t20 47.5t47.5 19.5t47.5 -19.5t20 -47.5
t-20 -47.5t-47.5 -19.5zM572 106q-6 0 -10.5 4.5t-4.5 11t4.5 11t10.5 4.5t10.5 -4.5t4.5 -11t-4.5 -11t-10.5 -4.5zM602 62q-6 0 -10.5 4t-4.5 10.5t4.5 11t10.5 4.5t10.5 -4.5t4.5 -11t-4.5 -10.5t-10.5 -4zM632 106q-6 0 -10.5 4.5t-4.5 11t4.5 11t10.5 4.5t10.5 -4.5
t4.5 -11t-4.5 -11t-10.5 -4.5zM662 62q-6 0 -10.5 4t-4.5 10.5t4.5 11t10.5 4.5t10.5 -4.5t4.5 -11t-4.5 -10.5t-10.5 -4zM692 106q-6 0 -10.5 4.5t-4.5 11t4.5 11t10.5 4.5t10.5 -4.5t4.5 -11t-4.5 -11t-10.5 -4.5zM722 62q-6 0 -10.5 4t-4.5 10.5t4.5 11t10.5 4.5
t10.5 -4.5t4.5 -11t-4.5 -10.5t-10.5 -4zM752 106q-6 0 -10.5 4.5t-4.5 11t4.5 11t10.5 4.5t10.5 -4.5t4.5 -11t-4.5 -11t-10.5 -4.5zM782 62q-6 0 -10.5 4t-4.5 10.5t4.5 11t10.5 4.5t10.5 -4.5t4.5 -11t-4.5 -10.5t-10.5 -4zM812 106q-6 0 -10.5 4.5t-4.5 11t4.5 11
t10.5 4.5t10.5 -4.5t4.5 -11t-4.5 -11t-10.5 -4.5zM842 62q-6 0 -10.5 4t-4.5 10.5t4.5 11t10.5 4.5t10.5 -4.5t4.5 -11t-4.5 -10.5t-10.5 -4z" />
    <glyph glyph-name="data" unicode="&#xe660;" 
d="M660 406h90l180 154q-4 7 -13 25t-14 29zM534 834v-72l72 63q-45 9 -72 9v0zM908 406l50 46q-3 11 -7.5 31t-6.5 32l-126 -108zM760 762l-226 -194v-76l270 234q-8 9 -45 36h1zM660 812l-126 -108v-77l185 158q-23 9 -58 27h-1zM876 650q-18 27 -36 45l-306 -262v-27h59z
M490 834q-118 -4 -216.5 -65.5t-155 -163t-56.5 -221.5q0 -155 94 -279l334 288v441zM521 362l-333 -288q62 -66 145 -103t179 -37q119 0 220.5 57t162 155t67.5 216h-441zM521 362z" />
    <glyph glyph-name="keep_record" unicode="&#xe640;" 
d="M824 -128h-624q-83 0 -141.5 58.5t-58.5 141.5v624q0 83 58.5 141.5t141.5 58.5h624q83 0 141.5 -58.5t58.5 -141.5v-624q0 -83 -58.5 -141.5t-141.5 -58.5zM221 39q22 -21 47 -46.5t39.5 -41l14.5 -15.5l99 167q-71 16 -139 59t-111 96l-107 -180q88 -20 157 -39z
M512 832q-91 0 -172 -48.5t-128 -129t-47 -170.5q0 -89 47.5 -165t127.5 -120.5t172 -44.5t172 46.5t127.5 125t47.5 168t-47.5 167.5t-127.5 124.5t-172 46.5zM844 258q-44 -55 -108 -97t-133 -58l99 -167q61 66 110 112q31 8 68 15.5t58 11t22 3.5zM651 447v0
q-10 -10 -10 -24q0 -4 1 -7v-1l14 -83q4 -24 -16 -37q-10 -7 -23 -7q-10 0 -18 4l-70 37q-8 4 -17 4q-10 0 -19 -5l-68 -36q-21 -11 -41 3q-20 13 -16 37l15 86v4q0 14 -9 24h-1l-61 62q-17 16 -9 38q7 22 31 25l78 12q20 2 29 19l36 75q10 22 35 22t35 -22l36 -74
q8 -18 29 -20l78 -12q24 -3 31 -25t-9 -38z" />
    <glyph glyph-name="arrow_bold_left" unicode="&#xe605;" 
d="M521 620l-211 -224l211 -223l-121 -128l-332 351l332 351zM273 474h614v-154h-614v154z" />
    <glyph glyph-name="bullseye2" unicode="&#xe628;" 
d="M512 786q109 0 201 -53.5t146 -146t54 -201.5t-54 -201t-146 -145.5t-201 -53.5t-201.5 53.5t-146 145.5t-53.5 201t53.5 201.5t146 146t201.5 53.5zM680 385l-63 64v-43h-84v86h42l-63 65l-63 -65h42v-86h-85v41l-63 -62l63 -63v42h85v-84h-42l63 -63l62 63h-41v84h84
v-42z" />
    <glyph glyph-name="redo" unicode="&#xe61a;" 
d="M144 384q0 -75 29 -143t78.5 -117.5t117.5 -78.5t143 -29q82 0 156.5 34.5t126.5 98.5q4 4 3.5 10t-4.5 10l-65 66q-5 5 -12 5q-8 -1 -11 -6q-35 -46 -86 -70.5t-108 -24.5q-50 0 -95 19t-78.5 52.5t-52.5 78.5t-19 95t19 95t52.5 78.5t78.5 52.5t95 19q47 0 90 -17
t77 -48l-66 -66q-15 -15 -7 -33q9 -20 29 -20h214q13 0 22 9.5t9 21.5v215q0 20 -19 28t-33 -7l-62 -62q-52 49 -118 75.5t-136 26.5q-75 0 -143 -29t-117.5 -78.5t-78.5 -117.5t-29 -143v0v0z" />
    <glyph glyph-name="strike" unicode="&#xe61b;" horiz-adv-x="1191" 
d="M1020 384q7 0 11.5 -4.5t4.5 -11.5v-33q0 -7 -4.5 -12t-11.5 -5h-887q-7 0 -12 5t-5 12v33q0 7 5 11.5t12 4.5h887zM364 417q-14 18 -26 41q-24 50 -24 96q0 93 68 159q69 65 202 65q26 0 86 -10q34 -6 91 -24q5 -20 10 -61q8 -63 8 -94q0 -9 -3 -23l-6 -1l-43 3l-7 1
q-26 76 -53 105q-45 47 -108 47q-59 0 -94 -31q-34 -29 -34 -75q0 -37 34 -71.5t143 -66.5q36 -10 89 -33q30 -15 49 -27h-382zM836 285q3 -20 3 -47q0 -57 -21 -109q-12 -28 -36 -53q-19 -18 -56 -42q-41 -24 -79 -33q-41 -11 -104 -11q-59 0 -100 12l-72 20q-29 8 -37 15
q-4 4 -4 11v163l52 1q8 -17 16 -36q7 -19 11 -29t7 -14q18 -29 41 -48q22 -19 54 -30q30 -11 67 -11q33 0 72 14q39 13 62 44q24 32 24 66q0 44 -41 81q-18 15 -70 36h211z" />
    <glyph glyph-name="cooperation" unicode="&#xe62a;" 
d="M512 896q-139 0 -257 -68.5t-186.5 -186.5t-68.5 -257t68.5 -257t186.5 -186.5t257 -68.5t257 68.5t186.5 186.5t68.5 257t-68.5 257t-186.5 186.5t-257 68.5zM482 490h-105q-44 0 -75 -30.5t-31 -75.5t31 -75.5t75 -30.5h105v-88h-105q-80 0 -136.5 57t-56.5 137
t56.5 137t136.5 57h105v-88v0zM646 190h-104v88h104q45 0 76 30.5t31 75.5t-31 75.5t-76 30.5h-104v88h104q81 0 137.5 -57t56.5 -137t-56.5 -137t-137.5 -57z" />
    <glyph glyph-name="sensing_down" unicode="&#xe603;" 
d="M105 556l62 62l407 -407l-62 -61zM857 618l62 -61l-407 -407l-62 62z" />
    <glyph glyph-name="operate" unicode="&#xe617;" 
d="M911 145h-798q-21 0 -36 14.5t-15 36.5v559q0 22 14 36.5t37 14.5h801q21 0 34.5 -14.5t13.5 -36.5v-559q0 -20 -14 -35.5t-37 -15.5zM903 736q0 2 -3.5 5t-7.5 3h-765q-4 3 -8 -6q-1 -1 -1 -2v-521q0 -8 9 -8h762q8 0 8 8v521h6zM700 567h105v-307h-105v307zM532 662
h107v-399h-107v399zM366 471h104v-211h-104v211zM214 378h104v-118h-104v118zM371 106q0 8 9 8h261q9 0 9 -8v-85h171v-59h-624v59h174v85zM371 106z" />
    <glyph glyph-name="test" unicode="&#xe6e4;" 
d="M211 660q15 0 25.5 10.5t10.5 25.5v98q0 15 -10.5 25t-25.5 10t-25 -10t-10 -25v-98q0 -15 10 -25.5t25 -10.5zM813 371q-15 0 -25.5 -10.5t-10.5 -25.5v-361q0 -14 10.5 -24.5t25.5 -10.5t25 10.5t10 24.5v361q0 15 -10 25.5t-25 10.5zM211 357q-15 0 -25 -10.5
t-10 -24.5v-352q0 -15 10 -25.5t25 -10.5t25.5 10.5t10.5 25.5v352q0 14 -10.5 24.5t-25.5 10.5zM813 683q15 0 25 10t10 25v80q0 15 -10 25.5t-25 10.5t-25.5 -10.5t-10.5 -25.5v-80q0 -14 10.5 -24.5t25.5 -10.5zM518.5 81q-14.5 0 -25 -10.5t-10.5 -25.5v-71
q0 -15 10.5 -25t25 -10t25 10t10.5 25v71q0 15 -10.5 25.5t-25 10.5zM518.5 384q14.5 0 25 10.5t10.5 25.5v378q0 15 -10.5 25.5t-25 10.5t-25 -10.5t-10.5 -25.5v-378q0 -15 10.5 -25.5t25 -10.5zM550 348h-63q-29 0 -50 -21t-21 -50v-96q0 -29 21 -50t50 -21h63
q29 0 50 21t21 50v96q0 30 -21 50.5t-50 20.5zM844 650h-62q-30 0 -51 -21t-21 -50v-96q0 -29 21 -50t51 -21h62q29 0 50 21t21 50v96q0 29 -21 50t-50 21zM242 627h-62q-29 0 -50 -21t-21 -51v-95q0 -30 21 -51t50 -21h62q30 0 51 21t21 51v95q0 30 -21 51t-51 21z" />
    <glyph glyph-name="keep_record1" unicode="&#xe601;" 
d="M838 926l166 -208v-249q-29 -190 -110 -307.5t-168 -181t-221 -106.5q-166 57 -262.5 156t-146 195.5t-78.5 239.5v286l175 175h645zM782 468q7 11 16 24t18 27q-69 3 -128.5 13.5t-109.5 27.5q47 25 84.5 54t65.5 63v40h-327l14 22q8 12 15 22l-45 20q-29 -51 -70 -98.5
t-96 -90.5q8 -7 17 -15.5t17 -17.5q28 24 53.5 48.5t48.5 50.5q20 -28 48 -52.5t64 -45.5q-56 -22 -121 -37.5t-140 -27.5q7 -11 13 -21.5t12 -21.5q85 15 157.5 35t131.5 45q54 -22 119 -38t143 -26v0zM728 179v281h-430v-281h43v27h343v-27h44zM341 424v-73h150v73h-150z
M341 242h150v74h-150v-74zM393 678h271q-30 -28 -65.5 -52t-78.5 -43q-39 18 -71.5 41.5t-55.5 53.5v0zM535 424v-73h149v73h-149zM535 242h149v74h-149v-74z" />
    <glyph glyph-name="operate2" unicode="&#xe6ad;" 
d="M912 748h-800q-20 0 -35 -14.5t-15 -35.5v-513q0 -21 15 -35.5t35 -14.5h292v-82h-90v-33h396v33h-90v82h292q20 0 35 14.5t15 35.5v513q0 21 -15 35.5t-35 14.5zM300 519q3 2 6 2t6 -2l122 -122l212 213q3 2 6.5 2t5.5 -2l116 -117l86 86q3 3 6 3v0q4 0 6 -3l27 -26
l-12 -12l-21 21l-86 -86q-6 -6 -11 0l-117 116l-213 -213q-2 -2 -5.5 -2t-5.5 2l-122 122l-142 -142l-12 11zM928 185q0 -7 -4.5 -12t-11.5 -5h-800q-7 0 -11.5 5t-4.5 12v65h832v-65z" />
    <glyph glyph-name="remove_hyperlink" unicode="&#xe664;" 
d="M621 576q-101 -7 -123 -9q-7 0 -15 8q-10 11 -133 140q-44 46 -88 1q-53 -56 -70 -74q-18 -19 -18 -40.5t18 -40.5q9 -9 59.5 -62.5t77.5 -81.5q9 -9 8 -22q-1 -19 -8 -126q-31 26 -32 27l-184 192q-43 47 -43 114t43 113q27 29 80 83q47 49 111 50t111 -47
q33 -33 187 -198q0 -1 19 -27zM697 497q30 -25 31 -26q124 -130 181 -191q47 -49 46.5 -115t-47.5 -115q-74 -77 -92 -94q-43 -39 -102.5 -37t-100.5 45q-59 62 -188 198q-1 1 -22 28q10 1 28 2t31 2.5t25 3.5q47 10 82 -33q15 -18 32 -36t42 -43.5t33 -34.5
q20 -21 42 -21.5t42 20.5q38 38 69 71q43 45 0 90q-16 17 -62 65.5t-71 75.5q-9 9 -9 21q1 20 10 124zM152 -16q-12 0 -18 8.5t-1 17.5q1 4 7 10q73 77 129 135q7 8 11 8q14 1 18.5 -4t2.5 -20q0 -3 -7 -11q-78 -81 -127 -132q-1 -1 -15 -12v0zM741 602q-11 0 -17 7.5
t-2 15.5q3 8 11 17q52 54 125 130q9 9 12 9q13 0 20 -6q3 -4 0 -19q-1 -2 -9 -11q-88 -93 -124 -130q0 -1 -16 -13zM668 747v-86q0 -21 -16 -21q-19 -1 -19 21v85.5v86.5q1 25 18 23q17 -1 17 -23v-86zM164.5 220h-80.5q-23 0 -22 19q0 18 22 17q13 0 81 0.5t81 -0.5
q23 0 22 -18q0 -18 -22 -18h-81.5zM391 21v-76q0 -9 -1 -10q0 -24 -17 -24q-17 1 -17 25v30v132v13q2 18 18 18q16 -1 16 -19v-89h1v0zM861 547h80q21 1 22 -18q0 -17 -21 -18h-165q-10 0 -16 4t-6 15q1 17 23 17h83z" />
    <glyph glyph-name="landline" unicode="&#xe60e;" horiz-adv-x="1025" 
d="M512 -115h-380q-31 0 -49.5 18.5t-18.5 49.5v43v48q-4 60 25 127q38 88 127 230q4 6 10 16t10 15q20 29 55 29q2 0 9 -0.5t11 -0.5t7 2q2 3 2.5 7t-0.5 10.5t-1 9.5v43q0 40 39 52q34 11 63 -5q27 -15 26 -44v-32.5v-32.5q0 -6 1.5 -8t7.5 -2q55 1 110 0q6 0 7.5 2t1.5 8
v19v23v20q0 41 39 52q37 12 68 -8q21 -15 21 -40q-1 -11 -1 -34v-35q0 -8 7 -7h24q34 0 51 -25q107 -150 151 -264q26 -63 23 -121v-99q0 -29 -18.5 -48t-48.5 -19q-125 1 -379 1v0zM290 823q-143 -33 -256 -147q-35 -35 -34 -85v-31v-30q0 -32 18.5 -50.5t50.5 -18.5h116
q33 0 52 18.5t19 51.5q0 42 22 79q38 61 110 87q60 21 153 17q72 -3 119 -28q109 -56 110 -165q0 -24 19 -42t45 -18h125q28 0 46.5 18t18.5 46v20v23.5v19.5q2 53 -36 91q-109 108 -238 140q-99 25 -238 26q-124 0 -222 -22zM515 333q-81 0 -138 -56t-57 -136
q0 -79 56 -135.5t135 -56.5q80 -1 136.5 55t56.5 136q1 79 -55 135.5t-134 57.5zM384 141q0 -53 37.5 -90.5t90.5 -37.5t90.5 37.5t37.5 91.5q0 52 -38 89.5t-90 37.5q-53 0 -90.5 -37.5t-37.5 -90.5z" />
    <glyph glyph-name="numbered_list" unicode="&#xe6e5;" 
d="M47 141h97v-24h-49v-49h49v-24h-97v-48h145v194h-145v-49zM95 578h49v194h-97v-48h48v-146zM47 433h87l-87 -102v-44h145v48h-87l87 102v44h-145v-48zM289 724v-97h680v97h-680zM289 44h680v97h-680v-97zM289 335h680v98h-680v-98z" />
    <glyph glyph-name="data3" unicode="&#xe673;" 
d="M811 747h-598q-17 0 -29.5 -12.5t-12.5 -30.5v-128q0 -18 12.5 -30.5t29.5 -12.5h598q17 0 29.5 12.5t12.5 30.5v128q0 18 -12.5 30.5t-29.5 12.5zM811 491h-598q-17 0 -29.5 -12.5t-12.5 -30.5v-128q0 -18 12.5 -30.5t29.5 -12.5h598q17 0 29.5 12.5t12.5 30.5v128
q0 18 -12.5 30.5t-29.5 12.5zM811 235h-598q-17 0 -29.5 -12.5t-12.5 -30.5v-128q0 -18 12.5 -30.5t29.5 -12.5h598q17 0 29.5 12.5t12.5 30.5v128q0 18 -12.5 30.5t-29.5 12.5zM661 256l150 -119v238zM811 299q-15 0 -22 -2v-86q7 2 22 2q52 0 90 -37.5t38 -90t-38 -90.5
t-90.5 -38t-90 38t-37.5 90q0 13 2 20l-73 57q-15 -41 -15 -77q0 -88 63 -150.5t151 -62.5t150.5 62.5t62.5 150.5t-62.5 151t-150.5 63z" />
    <glyph glyph-name="datum" unicode="&#xe6af;" 
d="M797 834h-375q-18 0 -31.5 -13t-13.5 -32v-150q0 -19 -13 -32t-32 -13h-150q-19 0 -32 -13t-13 -32v-525q0 -37 26.5 -63.5t63.5 -26.5h570q37 0 63.5 26.5t26.5 63.5v720q0 37 -26.5 63.5t-63.5 26.5zM700 159h-375q-9 0 -16 6.5t-7 16t7 16t16 6.5h375q9 0 15.5 -6.5
t6.5 -16t-6.5 -16t-15.5 -6.5zM700 309h-375q-9 0 -16 6.5t-7 16t7 16t16 6.5h375q9 0 15.5 -6.5t6.5 -16t-6.5 -16t-15.5 -6.5zM700 459h-240q-9 0 -16 6.5t-7 16t7 16t16 6.5h240q9 0 15.5 -6.5t6.5 -16t-6.5 -16t-15.5 -6.5zM170 638h116q19 0 31.5 12.5t12.5 31.5v123
q0 13 -6 15.5t-14 -6.5l-150 -154q-8 -9 -5 -15.5t15 -6.5z" />
    <glyph glyph-name="voice" unicode="&#xe675;" 
d="M132 542h-47q-15 0 -25.5 -10.5t-10.5 -25.5v-228q0 -16 10.5 -26.5t25.5 -10.5h47q16 0 26.5 10.5t10.5 26.5v228q0 15 -10.5 25.5t-26.5 10.5zM472 686l-243 -148q-10 -6 -16.5 -22.5t-6.5 -33.5v-196q0 -17 6.5 -33.5t16.5 -22.5l243 -148q47 -29 86.5 -19t39.5 55
v532q0 45 -39.5 55t-86.5 -19zM946 553q-29 71 -84 125q-11 11 -26 11t-25.5 -10.5t-10.5 -26t11 -25.5q43 -44 67.5 -102t24.5 -120t-24.5 -120.5t-67.5 -101.5q-11 -11 -11 -26t10.5 -26t25.5 -11t26 11q55 54 84 125.5t29 148.5t-29 148zM790 495.5q-18 43.5 -51 76.5
q-11 10 -26 10t-25.5 -10.5t-10.5 -25.5t11 -26q47 -48 47 -115.5t-47 -115.5q-11 -10 -11 -25t10.5 -26t25.5 -11t26 11q33 33 51 76.5t18 90.5t-18 90.5z" />
    <glyph glyph-name="triangle_right" unicode="&#xe6e1;" 
d="M315 -30q-21 0 -36.5 15.5t-15.5 36.5v724q0 22 15.5 37t36.5 15t37 -15l362 -363q15 -15 15 -36t-15 -36l-362 -363q-16 -15 -37 -15v0z" />
    <glyph glyph-name="triangle_top" unicode="&#xe6e2;" 
d="M926 187q0 -21 -15.5 -36.5t-36.5 -15.5h-724q-22 0 -37 15.5t-15 36.5t15 37l363 362q15 15 36 15t36 -15l363 -362q15 -16 15 -37z" />
    <glyph glyph-name="triangle_left" unicode="&#xe6e3;" 
d="M709 798q21 0 36.5 -15.5t15.5 -36.5v-724q0 -22 -15.5 -37t-36.5 -15t-37 15l-362 363q-15 15 -15 36t15 36l362 363q16 15 37 15z" />
    <glyph glyph-name="angle_left" unicode="&#xe72f;" 
d="M647 594l-25 25l-234 -234l234 -234l25 25l-208 209z" />
    <glyph glyph-name="angle_down" unicode="&#xe730;" 
d="M302 519l-25 -25l234 -234l234 234l-25 25l-209 -208z" />
    <glyph glyph-name="angle_right" unicode="&#xe731;" 
d="M377 174l25 -25l234 234l-234 234l-25 -25l208 -209l-208 -209v0z" />
    <glyph glyph-name="globe" unicode="&#xe7bd;" 
d="M502 471v0v3v-3v0zM699 256v0h-1h1v0zM704 256h-2h-3q-1 -3 2 -2q1 1 3 2v0zM512 896q-104 0 -199 -40.5t-163.5 -109t-109 -163.5t-40.5 -199t40.5 -199t109 -163.5t163.5 -109t199 -40.5t199 40.5t163.5 109t109 163.5t40.5 199t-40.5 199t-109 163.5t-163.5 109
t-199 40.5v0zM839 696q-30 -1 -44 -10q-2 -2 -5 -4.5t-6 -4.5t-6 -2.5t-9.5 -1t-10.5 -1.5q-9 -3 -15.5 -17.5t-14 -25t-20.5 -7.5t-32 31q-1 3 -5 8t-5 7t-2.5 7.5t2.5 8.5q-2 -1 -5.5 -1h-5.5q3 6 13 9.5t11 5.5q1 5 1 7.5t-5 4.5t-8 2.5t-8 1.5t-6 2q3 6 11 2t11 -3
q8 2 -4 11q-3 2 -5 3q-1 0 -4 -1q-15 -3 -16 1q0 2 5 7q-34 22 -62 40q-1 -5 3.5 -10t10 -8t14 -6.5t10.5 -4.5q-1 -5 -7 -9.5t-11 -2.5q-3 1 -6 7t-9 6q-4 -10 6.5 -14.5t11.5 -8.5t-0.5 -6t-3.5 -2t-5 0.5t-4 0.5l-3 2t-4.5 2.5t-2.5 -2.5q0 -4 7 -6t7 -6q-15 0 -36 13
q-5 4 -9 6t-10.5 2.5t-8 0.5h-12.5q17 7 17 8q12 9 13 13l1.5 4.5t-0.5 3t-1.5 2t-3.5 2.5t-4 3q-2 1 -8 5.5t-10.5 7.5t-8.5 4q-12 2 -17 -2.5t-5 -11.5t-3 -14t-12 -9h1h-1v0q-19 1 -21 -1q-2 -1 -3.5 -7t-2.5 -8q-4 -3 -11 -6t-9 -5q-20 -12 -25 -22q-4 -6 -2 -11.5t5 -9
t10 -7t12.5 -5.5t12.5 -4.5t10 -4.5q3 -1 11.5 -3.5t15 -5t8.5 -5.5t1 -11t6 -9q9 -5 14 1q2 4 2 5t-2.5 4t-2.5 5q0 7 -0.5 8t3 2t5.5 3q9 7 9.5 11t-3.5 15q-9 30 -4 34q7 2 12.5 1.5t14.5 -3.5t11 -3q4 -1 7.5 -4t6.5 -8t5 -6q9 -10 14 -10q5 1 6.5 6.5t3.5 6.5
q5 5 9.5 2.5t6.5 -5.5t5 -10q1 -2 1 -3q6 -13 19 -24q1 -1 4.5 -3.5t6 -5l5.5 -5.5t4.5 -5.5t0.5 -5.5q-1 -7 -28 -15q-11 -4 -24 -1.5t-25 -1.5t-14 -19q2 1 12 7t15 7.5t11 -1.5q2 -2 0 -7t-2 -7q3 -7 9.5 -7.5t13.5 1.5q-1 0 -2 -1q10 5 11.5 6.5t6.5 10.5q0 1 1.5 4.5
t3 6t2.5 3.5q3 3 5 4t4 0.5t2.5 -1t2.5 -3.5t3 -4q12 -15 11 -21q-29 5 -47 -7q-23 -15 -26 -16h-17v1q2 2 8.5 5.5t8.5 5.5q-2 3 -8 1l-7.5 -2.5t-7 -4.5t-6.5 -5q-5 -3 -11 -10.5t-8 -9.5l-7 -3.5t-7 -4.5q-1 -2 -3 -7t-4 -7q-1 -1 -4.5 -2t-5.5 -3q-1 -3 0.5 -7.5
t1.5 -6.5q-2 -4 -11 -10.5t-10 -6.5q1 0 2 1q-1 -1 -7 -6t-8 -9q7 -32 6 -34q-4 -12 -17 11q-2 3 -3 4q-5 7 -13 9.5t-15 1.5t-18 -3t-15 -3q-20 -2 -32.5 -21.5t-1.5 -38.5t34 -15q6 2 14 11.5t14 9.5t8.5 -2t1 -6t-3.5 -7.5t-4.5 -8t-3.5 -5.5q1 -4 0.5 -5t2 -2.5
t3.5 -1.5t5 -1q2 -1 9.5 0t8.5 -1q2 -1 3 -4.5t2 -5t3 -0.5q-7 -5 -6 -15t8 -14q3 -4 15 -3t15 0q11 -1 12 -1.5t5 4t10 8.5q4 5 11.5 2t8.5 -3q2 0 7.5 3t10.5 2q3 -1 8 -4.5t10 -3.5q2 -1 5.5 0t4.5 1q14 -2 40 -21q5 -4 9 -5t10 -2t10 -2q7 -3 15.5 -11t8.5 -15
q-1 -1 -5 -7.5t-4 -9.5h5.5t9 1t7.5 1q-7 -6 -12 -5q0 -1 9 -7q2 6 5 8t5.5 1.5t7.5 -3.5t7 -4q5 -2 16.5 -4t13.5 -2q26 -6 33 -15q10 -10 -3 -29q-3 -4 -11.5 -12.5t-10.5 -15.5q-2 -5 -2.5 -15.5t-0.5 -15.5q-2 -7 -3 -9t-5 -4.5t-7 -5.5t-4 -5.5t-7 -5.5q-3 -1 -10 -3
t-11 -4.5t-8 -7.5q1 1 1 2q-2 -3 -4 -9.5t-2 -7.5q-3 -6 -15 -19q-1 -1 -7.5 -9t-12 -15t-6.5 -6q0 2 -9.5 0.5t-9.5 1.5q1 -3 4 -5q-3 -17 -11 -22.5t-27 -5.5q1 -5 -1 -7.5t-6 -4t-6 -3.5t-4 -10t-3 -9q0 -1 -5 -8.5t-5 -8.5q0 -2 6 -9q-25 -4 -51 -7q6 8 -6 9q1 3 5.5 9
t6.5 10v3.5t1 4.5l1.5 6t0.5 3t-0.5 3t-1.5 4q-3 6 -2 14t1.5 10.5t3.5 10l5 12.5q3 11 5 35.5t4 32.5q5 30 1 42q-2 5 -7.5 9.5t-13 9.5t-9.5 8q-8 7 -26 35q-12 17 -13 20q-3 8 -3 9t2 2t2 4v11.5t3 14.5q1 5 8 13.5t8 13.5q6 19 -9 24q-2 1 -7.5 -0.5t-8.5 -1.5
q-9 2 -21 11q-4 3 -9.5 11t-10.5 11q-4 3 -10.5 3.5t-9.5 0.5q-4 2 -10 8t-9 8q-4 3 -12.5 0.5t-12.5 -1.5q-6 1 -18 7.5l-12 6.5q-25 11 -34 33q-2 6 -5 11t-9.5 12.5t-8.5 9.5q-3 3 -6.5 8.5t-5.5 8t-6.5 5t-9.5 3.5q-1 1 1 -5.5t3 -7.5l6 -10t7.5 -10.5t6.5 -8.5
q7 -10 5 -11.5t-9 8.5q-33 44 -34 46.5t-2.5 5.5t-2.5 5.5t-4 4.5q-3 3 -10 7t-9 7q-27 24 -23 71q0 2 1.5 11t1.5 14q-2 9 -11 18q-1 1 -2.5 3.5t-2.5 4t-1 2.5q-11 17 -16 22q-10 9 -27 20q74 92 183 137q1 -6 5 -11q1 -3 3 -4.5t4.5 -2.5t3.5 -1.5t5.5 -1t6.5 -0.5
q-2 -16 -28 -13q-8 3 -19 2.5t-18 -7.5q17 -10 19 -9t2 6q22 1 35 0q2 0 8 -1.5l10 -2.5t7 0q1 1 3 6.5t3 6.5q-1 0 -5 1t-5 0q2 4 5.5 4.5t5.5 0t7.5 -3t6.5 -3.5q-8 -5 -5 -12q3 -8 12 2q9 12 -14 25q9 11 15 11t14 -12q1 4 3 5.5t3.5 1.5t6 -0.5t5.5 -0.5v2q-1 0 -5 1
t-6 1q3 5 4.5 10t3.5 7t7 4q4 1 14 1.5t17.5 2t9.5 5.5q-5 -1 -19 -3t-23.5 -4t-17.5 -6q-2 -1 -8 -5.5t-8 -5t-8 2.5q-5 5 0 12.5t12 11.5h-1q46 10 94 10q30 0 62 -4q-4 -2 -4.5 -5t-2.5 -5q-8 -5 -39 -18q3 0 18.5 -2.5t25.5 -1t13 10.5q-4 1 -14 2q13 9 29 15
q141 -28 240 -133h-1v0zM922 516q0 1 1.5 2t2.5 2q0 1 1 4t2 4.5t4 3t4 2.5t2 3q11 -32 18 -66h-0.5h-0.5q-2 -2 -9 -2q-5 0 -13 6q-8 7 -11 12q-2 2 -1 15l-0.5 7t0.5 7v0zM928 281q-18 16 -26 28q-3 5 -3.5 10t0.5 13t1 11q0 2 -1.5 17t1.5 17q1 2 4.5 4.5t3.5 4.5
q2 3 4 8.5t4 9.5q3 4 9.5 8t8.5 5q3 3 4.5 5.5t3 6t2.5 5.5q7 12 16 19q5 -34 5 -69q0 -59 -15 -117q-8 2 -22 14v0zM928 281z" />
    <glyph glyph-name="italic" unicode="&#xe633;" 
d="M820 769v-68h-103l-258 -633h103v-69h-362v69h104l258 633h-103v68h361z" />
    <glyph glyph-name="sign" unicode="&#xe697;" horiz-adv-x="1025" 
d="M875 834h-727q-36 0 -61 -25t-25 -61v-727q0 -35 25.5 -60.5t60.5 -25.5h727q36 0 61 25.5t25 60.5v727q0 36 -25 61t-61 25zM621 636q11 11 29 25q4 3 12.5 6t12.5 5q27 0 43.5 -12.5t32.5 -35.5q17 -27 10 -49q-5 -20 -39 -45q-15 16 -42.5 43t-36.5 36q-1 1 -5 4.5
t-7 6t-6 6.5t-4 6t0 4zM283 237q2 5 5.5 19t5.5 21t5.5 17.5t7.5 19t9 15.5q4 8 28 32l20.5 20.5l19.5 19.5q130 130 194 192q68 -68 104 -102l-145 -146q-3 -5 -11 -13t-18.5 -17.5t-13.5 -12.5q-7 -7 -23 -24.5t-28.5 -29t-26.5 -20.5q-10 -6 -50 -20q-24 -8 -61 -18
q-21 -3 -23 8q-9 14 1 39v0zM776 97h-490q-11 0 -18.5 7.5t-7.5 18.5t7.5 18t18.5 7h490q11 0 18 -7t7 -18t-7 -18.5t-18 -7.5z" />
    <glyph glyph-name="hyperlink" unicode="&#xe6e6;" 
d="M978 166q0 -76 -51 -117l-80 -80q-44 -44 -117 -44q-75 0 -116 51l-117 117q-43 43 -43 116q0 76 51 117l-59 43q-40 -51 -116 -51t-117 51l-116 117q-51 41 -51 116.5t51 116.5l80 80q44 44 117 44q75 0 116 -51l117 -117q43 -43 43 -116q0 -76 -51 -117l51 -51
q41 51 116.5 51t116.5 -51l117 -116q58 -29 58 -109zM468 566q0 22 -14 36l-117 124q-29 15 -43 15q-22 0 -37 -15l-87 -87q-15 -15 -15 -36.5t15 -36.5l124 -124q14 -14 36 -14q15 0 44 14l-15 15q-3 3 -5 7t-4 5.5t-5 1.5q-4 0 -4 4t-4 4q-3 0 -5 3.5t-2 7.5v3v15
q0 22 15 36q21 22 43 22h15q3 0 7 -3.5t7 -3.5q4 0 5.5 -2t1.5 -4l1 -2l14 -14q7 -7 7 -15q22 22 22 44zM869 166q0 21 -15 36l-124 124q-14 14 -36 14t-44 -22l29 -29q8 -7 8 -14v-15q0 -22 -14.5 -36.5t-36.5 -14.5h-15q-3 0 -7 4t-7 4q-4 0 -5.5 1.5t-1.5 3.5l-1 2
l-14 14q-4 4 -7 4v4q-22 -22 -22 -44t14 -36l117 -117q14 -15 36 -15t37 15l80 80q29 10 29 37z" />
    <glyph glyph-name="arrow_right" unicode="&#xe891;" horiz-adv-x="1028" 
d="M989 350q12 12 12 31v0v1q0 19 -12 31l-336 338q-14 13 -33 13q-17 0 -29 -11q-21 -21 -7 -49l86 -86l12 -12l183 -184h-801q-17 0 -29 -12t-12 -28.5t12 -28.5t29 -12h801l-274 -275q-9 -13 -8 -28t12 -26q12 -12 28.5 -12t28.5 12l47 46z" />
    <glyph glyph-name="arrow_down" unicode="&#xe892;" horiz-adv-x="1028" 
d="M478 -93q12 -12 31 -12v0h1q19 0 31 12l338 336q13 14 13 33q0 17 -11 29q-21 21 -49 7l-86 -86l-12 -12l-184 -183v801q0 17 -12 29t-28.5 12t-28.5 -12t-12 -29v-801l-275 274q-13 9 -28 8t-26 -12q-12 -12 -12 -28.5t12 -28.5l46 -47z" />
    <glyph glyph-name="arrow_left" unicode="&#xe893;" horiz-adv-x="1028" 
d="M35 418q-12 -12 -12 -31v0v-1q0 -19 12 -31l336 -338q14 -13 33 -13q17 0 29 11q21 21 7 49l-86 86l-12 12l-183 184h801q17 0 29 12t12 28.5t-12 28.5t-29 12h-801l274 275q9 13 8 28t-12 26q-12 12 -28.5 12t-28.5 -12l-47 -46z" />
    <glyph glyph-name="arrow_bold_up" unicode="&#xe894;" 
d="M748 375l-224 211l-223 -211l-128 121l351 332l351 -332zM602 623v-614h-154v614h154z" />
    <glyph glyph-name="arrow_bold_right" unicode="&#xe895;" 
d="M503 148l211 224l-211 223l121 128l332 -351l-332 -351zM751 294h-614v154h614v-154z" />
    <glyph glyph-name="arrow_bold_down" unicode="&#xe896;" 
d="M276 393l224 -211l223 211l128 -121l-351 -332l-351 332zM422 145v614h154v-614h-154z" />
    <glyph glyph-name="invitation" unicode="&#xe61e;" 
d="M451 186q0 69 37 128q-2 12 5 26q18 23 30 49.5t13 37.5q5 4 11.5 10.5t18.5 27t13 41.5t-1.5 33.5t-4.5 13.5l-3 2q5 17 8 45.5t-1 62t-14.5 61.5t-35 43.5t-59.5 9.5q-8 16 -33.5 26.5t-57 11.5t-65.5 -17.5t-55 -56.5q-24 -42 -29.5 -91t11.5 -96q0 -1 -1.5 -1.5
t-3 -1.5t-3.5 -6t-3 -14q-2 -20 5 -44.5t18 -38.5q7 -10 21 -16q8 -47 45 -92q4 -16 -3 -29.5t-15 -19.5l-9 -6q-91 -17 -158 -61.5t-67 -95.5v-55q0 -92 338 -92q71 0 144 11q-44 34 -70 84.5t-26 109.5zM725 422q-97 0 -165.5 -68.5t-68.5 -165.5t68.5 -166t165.5 -69
t165.5 69t68.5 166t-68.5 165.5t-165.5 68.5zM845 176h-98v-98h-38v98h-99v38h99v99h38v-99h98v-38z" />
  </font>
</defs>
</svg>
